Сегодня идет свободное скачивание без начисления Download

Дерево Джошуа / Переступив черту / Joshua Tree (Вик Армстронг) (1993, Боевик, Приключения, Драма) HDRip

Ответить на тему
 
Автор
Сообщение

UndegraundMen ®

Стаж: 3 года 9 месяцев

Сообщений: 28329

Торрент-статистика

Пост 24-Мар-2013 07:19

[Цитировать]

Дерево Джошуа / Переступив черту / Joshua Tree- Русское название: Дерево Джошуа / Переступив черту
Оригинальное название: Joshua Tree
Год выпуска: 1993
Жанр: Боевик, Приключения, Драма
Производство: США, Vision International, Epic Productions, Zilex N.V.
Описание фильма:
Автогонщик Сэнти обвинен в убийстве полицейского. Это дело рук продажного копа Сэверенса, работающего на мафию. Сэнти получил серьезное ранение, но выжил. Его осудили на пожизненное заключение. Охранники должны были застрелить его якобы при попытке к бегству, но ему удалось скрыться.
Спасаясь от преследователей, он берет в заложницы красотку, не подозревая, что она — помощник шерифа. Рита — девица не из слабых. Она делает попытку сбежать, но ей это не удается. Сэнти сам отпускает ее, когда добирается до ранчо своего врага. Но тут уж Рита решает докопаться до сути происходящего.
Режиссер: Вик Армстронг
Актеры: Дольф Лундгрен, Джордж Сигал, Кристиан Альфонсо, Джеффри Льюис, Бо Старр, Мишель Филлипс, Мэтт Бэттеглия, Берт Ремсен, Майкл Пол Чан, Ханди Александр
Продолжительность: 01:42:07
Перевод: Многоголосый закадровый, Авторский (одноголосый А.Гаврилов)
Видеокодек: Xvid
Битрейт видео: ~1609 Кбит/сек
Размер кадра: 720 x 304
Качество видео: HDRip
Аудио 1: AC3 2.0, 192 Кбит/сек - Многоголосый закадровый
Аудио 2: AC3 2.0, 224 Кбит/сек - Авторский (одноголосый А.Гаврилов)

MediaInfo

Формат : AVI
Формат/Информация : Audio Video Interleave
Размер файла : 1,45 Гбайт
Продолжительность : 1 ч. 42 м.
Общий поток : 2039 Кбит/сек
Программа кодирования : VirtualDubMod 1.5.10.2 (build 2542/release)
Библиотека кодирования : VirtualDubMod build 2542/release
Видео
Идентификатор : 0
Формат : MPEG-4 Visual
Профиль формата : Advanced [email protected]
Параметр BVOP формата : 1
Параметр QPel формата : Нет
Параметр GMC формата : Без точки перехода
Параметр матрицы формата : Default (MPEG)
Идентификатор кодека : XVID
Идентификатор кодека/Подсказка : XviD
Продолжительность : 1 ч. 42 м.
Битрейт : 1609 Кбит/сек
Ширина : 720 пикселей
Высота : 304 пикселя
Соотношение сторон : 2,35:1
Частота кадров : 23,976 кадра/сек
Цветовое пространство : YUV
Субдискретизация насыщенности : 4:2:0
Битовая глубина : 8 бит
Тип развёртки : Прогрессивная
Метод сжатия : С потерями
Бит/(Пиксели*Кадры) : 0.307
Размер потока : 1,15 Гбайт (79%)
Библиотека кодирования : XviD 1.2.1 (UTC 2008-12-04)
Аудио #1
Идентификатор : 1
Формат : AC-3
Формат/Информация : Audio Coding 3
Расширение режима : CM (complete main)
Идентификатор кодека : 2000
Продолжительность : 1 ч. 42 м.
Вид битрейта : Постоянный
Битрейт : 192 Кбит/сек
Каналы : 2 канала
Расположение каналов : Front: L R
Частота : 48,0 КГц
Битовая глубина : 16 бит
Метод сжатия : С потерями
Размер потока : 140 Мбайт (9%)
Выравнивание : Разделение по промежуткам
Продолжительность промежутка : 42 мс. (1,00 видеокадр)
Время предзагрузки промежутка : 500 мс.
Заголовок : Многоголосый, закадровый (192 kbps, 2 ch)
Аудио #2
Идентификатор : 2
Формат : AC-3
Формат/Информация : Audio Coding 3
Расширение режима : CM (complete main)
Идентификатор кодека : 2000
Продолжительность : 1 ч. 42 м.
Вид битрейта : Постоянный
Битрейт : 224 Кбит/сек
Каналы : 2 канала
Расположение каналов : Front: L R
Частота : 48,0 КГц
Битовая глубина : 16 бит
Метод сжатия : С потерями
Размер потока : 164 Мбайт (11%)
Выравнивание : Разделение по промежуткам
Продолжительность промежутка : 42 мс. (1,00 видеокадр)
Время предзагрузки промежутка : 500 мс.
Заголовок : Одноголосый А.Гаврилов. (224 kbps, 2 ch)
Скриншоты:
Вне форума [Профиль] [ЛС]
Похожие темы
Форум Тема Автор Торрент Отв. Посл. сообщение
./templates/default/images/folder_dl.gif Заготовки, виньетки, костюмы, шаблоны и рамки Шаблоны - Генеалогическое дерево [PSD] UndegraundMen
1 | 0

0 | 8227

35

2013-07-26 23:10
UndegraundMen Последнее
./templates/default/images/folder_dl.gif Строительство, Дизайн и Ремонт Билл Хилтон | Работы по дереву. Лучшие проекты мебели для дома (2015) [PDF] moralis
1 | 0

0 | 433

10

2016-01-27 12:51
moralis Последнее
./templates/default/images/folder_dl.gif Строительство, Дизайн и Ремонт Марк Швец | Самодельное деревообрабатывающее оборудование (2014) [PDF] moralis
1 | 0

0 | 264

14

2016-03-02 21:55
moralis Последнее
./templates/default/images/folder_dl.gif Домоводство, Хобби Ф. Герригель, Э. фон Бюллов | Плоская резьба по дереву (2015) [PDF] moralis
1 | 0

0 | 115

1

2016-09-09 22:40
moralis Последнее
Показать сообщения:    
Ответить на тему

Текущее время: Сегодня 17:36

Часовой пояс: GMT + 3



Вы не можете начинать темы
Вы не можете отвечать на сообщения
Вы не можете редактировать свои сообщения
Вы не можете удалять свои сообщения
Вы не можете голосовать в опросах
Вы не можете прикреплять файлы к сообщениям
Вы не можете скачивать файлы