Сегодня идет свободное скачивание без начисления Download

Виннету – вождь апачей / Old Shatterhand (1964) BDRip

Ответить на тему
 
Автор
Сообщение

UndegraundMen ®

Стаж: 3 года 9 месяцев

Сообщений: 28329

Торрент-статистика

Пост 25-Мар-2013 00:03

[Цитировать]

Виннету – вождь апачей / Old Shatterhand (1964) BDRip- Русское название: Виннету – вождь апачей
Оригинальное название: Old Shatterhand
Год выпуска: 1964
Жанр: Вестерн, Приключения, Боевик
Описание фильма:
Верная Рука и Виннету продолжают успешно противостоять проискам коварных злодеев, желающих всеми правдами и неправдами завладеть племенными землями апачей. Захватывающие скачки и погони, безупречная стрельба навскидку, драки — все это присутствует в изобилии и никого не оставит равнодушным.
В советском прокате он проходил под названием "Виннету - вождь Апачей". Здесь также в эпизоде в роли апача участвует Гойко Митич.
Режиссер: Уго Фрегонезе
Актеры: Лекс Баркер, Гай Мэдисон, Пьер Брис, Далия Лави, Рик Батталья, Густаво Рохо, Ральф Вольтер, Китти Матерн, Билл Рэмси, Ален Тиссье
Продолжительность: 01:57:58
Перевод: Многоголосый закадровый + оригинал(немецкий)
Релиз группа: HQCLUB

Видеокодек: Xvid
Битрейт видео: ~2 244 Kbps
Размер кадра: 720x304
Качество видео: BDRip
Аудиокодек: AC3
Битрейт аудио: 192 Kbps
Sample: http://multi-up.com/846442

media info

General
Format : AVI
Format/Info : Audio Video Interleave
Format profile : OpenDML
File size : 2.18 GiB
Duration : 1h 57mn
Overall bit rate : 2 646 Kbps
Writing application : VirtualDubModRus 1.5.10.2 (build 2542/release)
Video
ID : 0
Format : MPEG-4 Visual
Format profile : Advanced [email protected]
Format settings, BVOP : 1
Format settings, QPel : No
Format settings, GMC : No warppoints
Format settings, Matrix : Custom
Codec ID : XVID
Codec ID/Hint : XviD
Duration : 1h 57mn
Bit rate : 2 244 Kbps
Width : 720 pixels
Height : 304 pixels
Display aspect ratio : 2.35:1
Frame rate : 23.976 fps
Color space : YUV
Chroma subsampling : 4:2:0
Bit depth : 8 bits
Scan type : Progressive
Compression mode : Lossy
Bits/(Pixel*Frame) : 0.428
Stream size : 1.85 GiB (85%)
Writing library : XviD 65
Audio #1
ID : 1
Format : AC-3
Format/Info : Audio Coding 3
Format profile : Dolby Digital
Mode extension : CM (complete main)
Format settings, Endianness : Big
Codec ID : 2000
Duration : 1h 57mn
Bit rate mode : Constant
Bit rate : 192 Kbps
Channel(s) : 2 channels
Channel positions : Front: L R
Sampling rate : 48.0 KHz
Bit depth : 16 bits
Compression mode : Lossy
Stream size : 162 MiB (7%)
Alignment : Split accross interleaves
Interleave, duration : 42 ms (1.00 video frame)
Interleave, preload duration : 500 ms
Audio #2
ID : 2
Format : AC-3
Format/Info : Audio Coding 3
Mode extension : CM (complete main)
Format settings, Endianness : Big
Codec ID : 2000
Duration : 1h 57mn
Bit rate mode : Constant
Bit rate : 192 Kbps
Channel(s) : 2 channels
Channel positions : Front: L R
Sampling rate : 48.0 KHz
Bit depth : 16 bits
Compression mode : Lossy
Stream size : 162 MiB (7%)
Alignment : Split accross interleaves
Interleave, duration : 42 ms (1.00 video frame)
Interleave, preload duration : 500 ms
Скриншоты:

Время раздачи: до нескольких раздающих
Вне форума [Профиль] [ЛС]
Показать сообщения:    
Ответить на тему

Текущее время: Сегодня 22:52

Часовой пояс: GMT + 3



Вы не можете начинать темы
Вы не можете отвечать на сообщения
Вы не можете редактировать свои сообщения
Вы не можете удалять свои сообщения
Вы не можете голосовать в опросах
Вы не можете прикреплять файлы к сообщениям
Вы не можете скачивать файлы