Сегодня идет свободное скачивание без начисления Download

Дозор любви приходит ровно в полночь / A mezzanotte va la ronda del piacere (1975) DVDRip [H.264]

Ответить на тему
 
Автор
Сообщение

UndegraundMen ®

Стаж: 3 года 9 месяцев

Сообщений: 28329

Торрент-статистика

Пост 26-Мар-2013 22:16

[Цитировать]

Дозор любви приходит ровно в полночь / A mezzanotte va la ronda del piacere (1975) DVDRip [H.264] -«... making up is the most fun of all!»- Русское название: Дозор любви приходит ровно в полночь
Оригинальное название: A mezzanotte va la ronda del piacere
Год выпуска: 1975
Жанр: Комедия, Драма, Детектив
Страна: Италия
Производство: Delfo Cinematografica, Rizzoli Film S.p.a.
Описание фильма:
Габриэлла Сансони замужем за предпринимателем, вечно скрывающимся от налоговой полиции и кредиторов. Её муж Андреа постоянно переезжает с места на место, повсюду таскает за собой Габриэллу, но на неё у него совершенно не остаётся времени. Габриэлла тоскует от такой пресной и однообразной жизни, её единственные скромные развлечения — гороскопы и гадания.
Неожиданно в жизни Габриэллы происходит событие, которое наверняка не обрадовало бы большинство обывателей, но для обделённой вниманием жены оно становится глотком свежего воздуха — её избрали народной судьёй. Слушается дело об убийстве, подсудимая Тина Кандела обвиняется в убийстве своего мужа Джино Бенасио. Слушание длится несколько дней и зритель наблюдает развитие отношений между Тиной и Джино, историю их страсти, череды измен, скандалов, прощений и новых измен. Габриэлла невольно сравнивает бурную, полную любви и ненависти жизнь этой женщины с тихой и серой своей, и даже втайне завидует ей. Она всё больше убеждается в том, что Тина по-настоящему любила Джино и не могла желать ему смерти. Но кроме Габриэллы в невиновность Тины никто не верит, пока на заседание не является главный свидетель…
Режиссер: Марчелло Фондато
Сценарий: Марчелло Фондато, Франческо Скардамалья
Продюсер: Элио Скардамалья
Актеры: Клаудия Кардинале, Витторио Гассман, Моника Витти, Джанкарло Джаннини, Антонелла Доган, Ренато Поццетто, Джованна Джентиле, Паола Майолини, Витторио Фанфони, Пино Локки
Продолжительность: 01:39:35
Перевод: Многоголосый закадровый
Субтитры: Отсутствуют

Дата мировой премьеры: 19 февраля 1975
Дата выхода DVD релиза: 13 августа 2009, «Cinema Prestige»
Видеокодек: MPEG-4 AVC/H.264
Битрейт видео: ~2100 Кбит/сек
Размер кадра: 720x384
Качество видео: DVDRip
Аудиокодек: AC3 2.0
Битрейт аудио: 192 kbps

MediaInfo:

General
Unique ID : 241496347436983079385505119623107812460 (0xB5AE8133F2827563B6B0DA02802F9C6C)
Complete name : H:\Downloads\Дозор любви приходит ровно в полночь.mkv
Format : Matroska
Format version : Version 4 / Version 2
File size : 1.60 GiB
Duration : 1h 39mn
Overall bit rate : 2 306 Kbps
Encoded date : UTC 2013-03-21 07:29:23
Writing application : mkvmerge v6.0.0 ('Coming Up For Air') built on Jan 20 2013 09:52:00
Writing library : libebml v1.3.0 + libmatroska v1.4.0
Video
ID : 1
Format : AVC
Format/Info : Advanced Video Codec
Format profile : [url=mailto:[email protected]][email protected][/url]
Format settings, CABAC : Yes
Format settings, ReFrames : 8 frames
Codec ID : V_MPEG4/ISO/AVC
Duration : 1h 39mn
Bit rate : 2 100 Kbps
Width : 720 pixels
Height : 384 pixels
Display aspect ratio : 1.85:1
Frame rate mode : Constant
Frame rate : 25.000 fps
Color space : YUV
Chroma subsampling : 4:2:0
Bit depth : 8 bits
Scan type : Progressive
Bits/(Pixel*Frame) : 0.304
Stream size : 1.44 GiB (90%)
Title : A mezzanotte va la ronda del piacere
Writing library : x264 core 129 r2230 1cffe9f
Encoding settings : cabac=1 / ref=8 / deblock=1:0:0 / analyse=0x3:0x113 / me=umh / subme=9 / psy=1 / psy_rd=1.00:0.00 / mixed_ref=1 / me_range=32 / chroma_me=1 / trellis=2 / 8x8dct=1 / cqm=0 / deadzone=21,11 / fast_pskip=1 / chroma_qp_offset=-2 / threads=6 / lookahead_threads=1 / sliced_threads=0 / nr=0 / decimate=0 / interlaced=0 / bluray_compat=0 / constrained_intra=0 / bframes=3 / b_pyramid=2 / b_adapt=2 / b_bias=0 / direct=3 / weightb=1 / open_gop=0 / weightp=2 / keyint=250 / keyint_min=25 / scenecut=40 / intra_refresh=0 / rc_lookahead=40 / rc=2pass / mbtree=1 / bitrate=2100 / ratetol=25.0 / qcomp=0.60 / qpmin=10 / qpmax=51 / qpstep=4 / cplxblur=20.0 / qblur=0.5 / ip_ratio=1.40 / aq=1:1.00
Language : Italian
Default : Yes
Forced : No
Audio
ID : 2
Format : AC-3
Format/Info : Audio Coding 3
Mode extension : CM (complete main)
Format settings, Endianness : Big
Codec ID : A_AC3
Duration : 1h 39mn
Bit rate mode : Constant
Bit rate : 192 Kbps
Channel(s) : 2 channels
Channel positions : Front: L R
Sampling rate : 48.0 KHz
Bit depth : 16 bits
Compression mode : Lossy
Stream size : 137 MiB (8%)
Title : Многоголосый закадровый
Language : Russian
Default : Yes
Forced : No
Скриншоты:                    Время раздачи: с 12:00 до 24:00 по Москве (выходные круглосуточно), до 10 скачавших
Вне форума [Профиль] [ЛС]
Похожие темы
Форум Тема Автор Торрент Отв. Посл. сообщение
./templates/default/images/folder_dl.gif Фантастика, фэнтези, ужасы, мистика Желунов Николай - Дозоры: Дозоры не работают вместе [Смекалов Валерий, 2016 г., 128 kbps, MP3] Omen
1 | 0

0 | 174

3

2016-05-24 18:00
Omen Последнее
./templates/default/images/folder_dl.gif * Фантастика, фэнтези, ужасы, мистика Сергей Лукьяненко и др. | Затерянный дозор. Лучшая фантастика 2017 [сборник] (2016) [FB2] moralis
1 | 0

0 | 680

2

2016-12-06 16:10
moralis Последнее
Показать сообщения:    
Ответить на тему

Текущее время: Сегодня 22:19

Часовой пояс: GMT + 3



Вы не можете начинать темы
Вы не можете отвечать на сообщения
Вы не можете редактировать свои сообщения
Вы не можете удалять свои сообщения
Вы не можете голосовать в опросах
Вы не можете прикреплять файлы к сообщениям
Вы не можете скачивать файлы