Сегодня идет свободное скачивание без начисления Download

Пират Черная борода / Blackbeard, the Pirate (1952) DVDRip

Ответить на тему
 
Автор
Сообщение

UndegraundMen ®

Стаж: 3 года 9 месяцев

Сообщений: 28329

Торрент-статистика

Пост 27-Мар-2013 10:37

[Цитировать]

Пират Черная борода / Blackbeard, the Pirate (1952) DVDRip- Русское название: Пират Черная борода
Оригинальное название: Blackbeard, the Pirate
Год выпуска: 1952
Жанр: Приключения, Боевик, История
Описание фильма:
Легендарного пирата по прозвищу «Черная Борода» никак не могут поймать все объединенные силы правопорядка, он с легкостью ускользает от погонь, а потом с такой же легкостью проникает в нужные ему порты, не взирая на мощную заградительную артиллерию и огромные гарнизоны.
И тогда, против него решает на свой страх и риск начать спецоперацию молодой, сильный, но немного романтичный доктор медицины.
Режиссер: Рауль Уолш
Актеры: Торин Тэтчер, Алан Маубрэй, Роберт Ньютон, Линда Дарнелл, Уильям Бендикс, Кит Эндес, Ирен Райан, Ричард Иган, Дик Вессель, Энтони Карузо, Джек Ламберт, Ноэль Дрейтон, Пэт Флаэрти, Джеймс Крэвен, Сол Горсс, Карл Харбо, Честер Хэйес, Джо Домингез
Продолжительность: 01:33:00
Перевод: Многоголосый закадровый

Видеокодек: Xvid
Битрейт видео: ~1992 kbps
Размер кадра: 704x528
Качество видео: DVDRip
Аудиокодек: AC3
Битрейт аудио: 48 kHz, 192 kbps, 2 chnls

MediaInfo

Общее
Полное имя : D:\фильмы\Blackbeard, the Pirate.avi
Формат : AVI
Формат/Информация : Audio Video Interleave
Размер файла : 1,44 Гбайт
Продолжительность : 1 ч. 33 м.
Общий поток : 2193 Кбит/сек
Режиссёр : Rip by Edich2
Программа кодирования : VirtualDubModRus 1.5.10.2 (build 2542/release)
Библиотека кодирования : VirtualDubMod build 2542/release
Видео
Идентификатор : 0
Формат : MPEG-4 Visual
Профиль формата : Advanced [email protected]
Параметр BVOP формата : 2
Параметр QPel формата : Нет
Параметр GMC формата : Без точки перехода
Параметр матрицы формата : Default (H.263)
Режим смешивания : Сжатый битовый поток
Идентификатор кодека : XVID
Идентификатор кодека/Подсказка : XviD
Продолжительность : 1 ч. 33 м.
Битрейт : 1992 Кбит/сек
Ширина : 704 пикселя
Высота : 528 пикселей
Соотношение сторон : 4:3
Соотношение сторон в оригинале : 4:3
Частота кадров : 25,000 кадров/сек
Цветовое пространство : YUV
Субдискретизация насыщенности : 4:2:0
Битовая глубина : 8 бит
Тип развёртки : Прогрессивная
Метод сжатия : С потерями
Бит/(Пиксели*Кадры) : 0.214
Размер потока : 1,31 Гбайт (91%)
Библиотека кодирования : XviD 64
Аудио
Идентификатор : 1
Формат : AC-3
Формат/Информация : Audio Coding 3
Расширение режима : CM (complete main)
Параметр Endianness формата : Big
Идентификатор кодека : 2000
Продолжительность : 1 ч. 33 м.
Вид битрейта : Постоянный
Битрейт : 192 Кбит/сек
Каналы : 2 канала
Расположение каналов : Front: L R
Частота : 48,0 КГц
Битовая глубина : 16 бит
Метод сжатия : С потерями
Размер потока : 129 Мбайт (9%)
Выравнивание : Разделение по промежуткам
Продолжительность промежутка : 40 мс. (1,00 видеокадр)
Время предзагрузки промежутка : 500 мс.
Скриншоты:
     

Рецензия, отзыв о фильме

Голливудская версия приключений пирата Эдварда Тича по прозвищу Черная Борода. Кстати, реально существовавшего и жившего в 18 веке. Пиратствовал он недолго, всего два года, и погиб в схватке с английскими моряками. Уже после смерти его личность обрасла массой легенд.
Картина Рауля Уолша изрядно романтизирует историю Черной Бороды. К тому же в фильм добавили образ другого знаменитого пирата Генри Моргана, на самом деле умершего в то время, когда Тич был еще ребенком. Эту роль исполнил Торин Тэтчер.
Самого Эдварда Тича в фильме играет Роберт Ньютон. За два года до этого актер прославился в образе Джона Сильвера из диснеевской экранизации «Острова сокровищ». Вполне удачно он сыграл и здесь, став лучшим исполнителем роли знаменитого пирата. Разумеется, не обошлось и без романтической линии, которую на экране воплотили герои Линды Дарнелл и Кита Эндеса.
Снято все вполне с голливудским размахом: есть зрелищные морские сражения и схватки на шпагах. Правда, положительные герои сильно уступают ярким отрицательным образам пиратов. Вполне приличное костюмно-приключенческое кино со звездами Голливуда 50-х годов. (Кинопоиск)
Вне форума [Профиль] [ЛС]
Показать сообщения:    
Ответить на тему

Текущее время: Сегодня 09:45

Часовой пояс: GMT + 3



Вы не можете начинать темы
Вы не можете отвечать на сообщения
Вы не можете редактировать свои сообщения
Вы не можете удалять свои сообщения
Вы не можете голосовать в опросах
Вы не можете прикреплять файлы к сообщениям
Вы не можете скачивать файлы