Сегодня идет свободное скачивание без начисления Download

Прощай, друг / Adieu l\'ami (1968) DVDRip [H.264]

Ответить на тему
 
Автор
Сообщение

UndegraundMen ®

Стаж: 3 года 9 месяцев

Сообщений: 28329

Торрент-статистика

Пост 27-Мар-2013 23:10

[Цитировать]

Прощай, друг / Adieu l'ami (1968) DVDRip [H.264] - Русское название: Прощай, друг
Оригинальное название: Adieu l'ami
Год выпуска: 1968
Жанр: Боевик, Триллер, Драма, Детектив, Приключения
Страна: Франция, Италия
Производство: Greenwich Film Productions, Medusa Produzione
Описание фильма:
Дино Барран, лейтенант медицинской службы возвращается из Алжира, где он участвовал в проигранной войне. Барран красив и молод, но усталость и безразличие ко всему написаны у него на лице. Молодой доктор привлекает внимание Проппа — десантника Иностранного Легиона.
В казармах лагеря Сент-Март их койки оказываются рядом, и легионер пытается навязать Баррану участие в одном рискованном «выгодном дельце» где-то в Конго. И хотя «заманчивое» предложение оставляет Баррана равнодушным, Пропп не из тех парней, кто легко согласится с отказом. Решительный и настойчивый, он выслеживает доктора в Париже, где Барран подрядился произвести медосмотр в одной крупной компании.
Конечно, для бывшего легионера медосмотр не главное — его интересует сейф компании, расположенный в подземном хранилище рядом с медкабинетом. Неожиданно для себя Барран оказывается в подземелье, не один, а вместе со своим ненавистным преследователем. Однако участие в опасной авантюре делает врагов друзьями.
Режиссер: Жан Херман
Сценарий: Себастьен Жапризо, Жан Херман
Продюсер: Серж Зильберман
Актеры: Ален Делон, Чарльз Бронсон, Ольга Жорж-Пико, Брижит Фоссе, Бернар Фрессон, Марианна Фальк, Эллен Баль, Жан-Клод Баллард, Мишель Барсе, Антуан Бо
Продолжительность: 01:50:05
Перевод: Многоголосый закадровый
Субтитры: Отсутствуют

Дата мировой премьеры: 14 августа 1968
Видеокодек: MPEG-4 AVC/H.264
Битрейт видео: ~2199 Кбит/сек
Размер кадра: 720x416
Качество видео: DVDRip
Аудиокодек: AC3 2.0
Битрейт аудио: 192 kbps

Реценция с кинопоиска от Дегустатора:

На свете существуют, по крайней мере, четыре профессии, заключающие в себе самый высокий гуманистический потенциал — врач, учитель, милиционер (полицейский) и священнослужитель. Но иногда люди, работающие в этих сферах, не оправдывают взятых на себя обязательств и совершают такие поступки, которые порицаются как законодательством, так и обществом. Телевидение и пресса почти каждый день рассказывают нам о чудовищных преступлениях — учителя доводят своих учеников до самоубийства; милиционеры расстреливают мирных граждан, которых они наоборот должны защищать; некоторые особо похотливые священнослужители без стыда и совести совращают малолетних; а врачи под благовидным предлогом продают младенцев на органы или грабят ювелирные магазины…
Фильм «Прощай, друг» повествует о молодом докторе, который вернулся с войны и устроился работать в перспективную компанию… только для того, чтобы вскрыть тамошний сейф, в котором, по его мнению, должны находиться 200 миллионов…
С корабля, прибывшего в Марсель из Алжира, сходят два солдата — американец (Чарльз Бронсон) и француз (Ален Делон). Герой Бронсона — простой иностранный легионер Пропп, а герой Делона — несколько циничный и ироничный лейтенант медицинской службы Барран, который, как он выразился, на войне в Алжире не исцелял раненых, а «собирал калек по косточкам». Пропп давно разглядел в Барране надёжного напарника, и после участия в военных действиях сразу предлагает ему хорошее и выгодное дельце, но Барран отказывается и уезжает в Париж, чтобы устроиться врачом в одну из парижских компаний и проводить там медицинское обследование сотрудников. Но главной целью француза является всё же не выявление тех или иных заболеваний у канцелярских крыс, а сейф, который находится в подвале рядом с его медицинским кабинетом. Пропп тем временем выслеживает Баррана и нагло присоединяется к авантюре, задуманной коварным доктором. В хранилище они попали без особых проблем, а вот выбраться оттуда им было крайне сложно…
Фильм вышел в прокат аж в 1968 году, но первое, что удивляет — это отсутствие вялости. С первых секунд кадры фильма сопровождает динамичная и интересная музыка. Сюжет довольно сложен, но развивается стремительно и напористо, не оставляя зрителю время на раздумье. Картина содержит много оригинальных и даже странных моментов, а в некоторых эпизодах даже присутствует нелогичность, но фабула (сюжетная основа) картины сохраняется ясной от начала и до конца. Поэтому в общем фильм смотрится без особых умственных и эмоциональных затрат. Актёры играют легко и с юмором, как будто и не играют вовсе, а просто живут…
Такие фильмы созданы чисто для развлекательных целей и отнюдь не призывают зрителей к постижению нравственных и философских законов. Но порой ленты именно такой направленности подталкивают людей к переосмыслению своей жизни. Картина «Прощай, друг» как раз из таких. И даже непредвзятым взглядом можно определить, что она является абсолютным шедевром, гениальность которого не вызывает никаких сомнений.
10 из 10

MediaInfo:

General
Unique ID : 175254815448040573792262289655405439533 (0x83D8D985BD2A04E58B3EF3135C336A2D)
Complete name : H:\Downloads\Прощай, друг!.mkv
Format : Matroska
Format version : Version 4 / Version 2
File size : 1.82 GiB
Duration : 1h 50mn
Overall bit rate : 2 366 Kbps
Encoded date : UTC 2013-03-26 05:01:29
Writing application : mkvmerge v6.0.0 ('Coming Up For Air') built on Jan 20 2013 09:52:00
Writing library : libebml v1.3.0 + libmatroska v1.4.0
Video
ID : 1
Format : AVC
Format/Info : Advanced Video Codec
Format profile : [url=mailto:[email protected]][email protected][/url]
Format settings, CABAC : Yes
Format settings, ReFrames : 8 frames
Codec ID : V_MPEG4/ISO/AVC
Duration : 1h 50mn
Bit rate : 2 199 Kbps
Width : 720 pixels
Height : 416 pixels
Display aspect ratio : 1.731
Frame rate mode : Constant
Frame rate : 25.000 fps
Color space : YUV
Chroma subsampling : 4:2:0
Bit depth : 8 bits
Scan type : Progressive
Bits/(Pixel*Frame) : 0.294
Stream size : 1.64 GiB (90%)
Title : Adieu l'ami
Writing library : x264 core 129 r2230 1cffe9f
Encoding settings : cabac=1 / ref=8 / deblock=1:0:0 / analyse=0x3:0x113 / me=umh / subme=9 / psy=1 / psy_rd=1.00:0.00 / mixed_ref=1 / me_range=32 / chroma_me=1 / trellis=1 / 8x8dct=1 / cqm=0 / deadzone=21,11 / fast_pskip=1 / chroma_qp_offset=-2 / threads=6 / lookahead_threads=1 / sliced_threads=0 / nr=0 / decimate=0 / interlaced=0 / bluray_compat=0 / constrained_intra=0 / bframes=3 / b_pyramid=2 / b_adapt=2 / b_bias=0 / direct=3 / weightb=1 / open_gop=0 / weightp=2 / keyint=250 / keyint_min=25 / scenecut=40 / intra_refresh=0 / rc_lookahead=40 / rc=2pass / mbtree=1 / bitrate=2199 / ratetol=25.0 / qcomp=0.60 / qpmin=10 / qpmax=51 / qpstep=4 / cplxblur=20.0 / qblur=0.5 / ip_ratio=1.40 / aq=1:1.00
Language : French
Default : Yes
Forced : No
Audio
ID : 2
Format : AC-3
Format/Info : Audio Coding 3
Mode extension : CM (complete main)
Format settings, Endianness : Big
Codec ID : A_AC3
Duration : 1h 50mn
Bit rate mode : Constant
Bit rate : 192 Kbps
Channel(s) : 2 channels
Channel positions : Front: L R
Sampling rate : 48.0 KHz
Bit depth : 16 bits
Compression mode : Lossy
Delay relative to video : 40ms
Stream size : 151 MiB (8%)
Title : Многоголосый закадровый
Language : Russian
Default : Yes
Forced : No
Скриншоты:                    
Вне форума [Профиль] [ЛС]
Показать сообщения:    
Ответить на тему

Текущее время: Сегодня 17:32

Часовой пояс: GMT + 3



Вы не можете начинать темы
Вы не можете отвечать на сообщения
Вы не можете редактировать свои сообщения
Вы не можете удалять свои сообщения
Вы не можете голосовать в опросах
Вы не можете прикреплять файлы к сообщениям
Вы не можете скачивать файлы