Сегодня идет свободное скачивание без начисления Download

Последний магнат / The Last Tycoon (1976) DVDRip [H.264]

Ответить на тему
 
Автор
Сообщение

UndegraundMen ®

Стаж: 3 года 9 месяцев

Сообщений: 28329

Торрент-статистика

Пост 31-Мар-2013 08:53

[Цитировать]

Последний магнат / The Last Tycoon (1976) DVDRip [H.264] -«He has the power to make anyone's dream come true... except his own.»- Русское название: Последний магнат
Оригинальное название: The Last Tycoon
Год выпуска: 1976
Жанр: Драма, Мелодрама
Страна: США
Производство: Academy Pictures Corporation, Paramount Pictures
Описание фильма:
Экранизация незаконченного романа о Голливуде Фрэнсиса Скотта Фицджеральда, а именно, о вымышленном киномагнате Монро Старе, под которым легко угадывается Ирвинг Талберг, известный своей самоотверженностью в работе.
Режиссер: Элиа Казан
Сценарий: Фрэнсис Скотт Фицджеральд, Гарольд Пинтер
Продюсер: Сэм Шпигель
Актеры: Роберт Де Ниро, Тони Кертис, Роберт Митчум, Жанна Моро, Джек Николсон, Дональд Плезенс, Рэй Милланд, Дэна Эндрюс, Ингрид Боултинг, Питер Штраусс, Тереза Расселл, Тайг Эндрюс, Морган Фарли, Джон Кэрредин, Джефф Кори, Дайан Шалет, Сеймур Кэссел, Анжелика Хьюстон
Продолжительность: 02:03:08
Перевод: Двуголосый закадровый (студия "Ульпаней Эль-Ром", Израиль)
Субтитры: Отсутствуют

Дата мировой премьеры: 15 ноября 1976
Видеокодек: MPEG-4 AVC/H.264
Битрейт видео: ~2079 Кбит/сек
Размер кадра: 720x400
Качество видео: DVDRip
Аудиокодек: AC3 5.1
Битрейт аудио: 448 kbps

Знаете ли вы, что...

Сэм Шпигель хотел видеть в роли Монро Стара Джека Николсона, но Элиа Казан настоял на Роберте Де Ниро.
Впрочем, кандидатура самого Казана была под вопросом. Первоначально планировалось, что фильм будет снимать Майк Николс. И в этом случае роль досталась бы Дастину Хоффману.
Еще одним кандидатом на роль Монро был Аль Пачино, но он отказался сам.
Роман Фицджеральда, по которому снят фильм, был написан только наполовину и обрывается буквально на полуслове. Фицджеральд умер в декабре 1940 года, в возрасте 44 лет, за столом над рукописью «Последнего магната».

Реценция с кинопоиска от аррмена:

Последние и Единственные
«Последний магнат» — не только последний незавершённый роман классика литературы Фрэнсиса Скотта Фицджеральда, но и последний фильм классика режиссуры Элиа Казана, и последний проект классика — продюсера Сэма Шпигеля. Это последний фильм, снятый в традиции, так называемого, «золотого века» Голливуда, воспринятый в динамичные семидесятые сущей архаикой.
«Последний магнат» — это единственная совместная работа двух выдающихся актёров своего поколения — Де Ниро и Николсона. Но и на этом уникальность актёрского состава не завершается. Интернациональность европейского и американского исполнительства представлена именами Роберта Митчума, Тони Кёртиса, Жанны Моро, Ингрид Боутлинг, Даны Эндрюс, Джона Кэррадайна, Анжелики Хьюстон, Дональда Плезенса.
«Последний магнат» рассказывает вымышленную историю некоего воротилы кинобизнеса Монро Стара, прообразом которого служил реальный последний киновундеркинд Ирвинг Тальберг. Фицджеральд, презирал «фабрику грёз» за поверхностность, корыстолюбие, интеллектуальную убогость, за собственное уничижительное положение в эшелоне, вроде бы, уважаемых сценаристов, с мнением которых, всё — равно, никто не считается. Насыщая сюжет «настоящими» ситуациями и заимствуя множества черт у прототипов книжных образов, писатель всё же не выступает летописцем эфемерного мира кинематографической реальности. Он, скорее адвокат дьявола, пытающийся показать изначальную гибельность самой талантливой личности в данной коммерческой структуре. Однако те немногие отрывки послужившие основой сценарий классика драматургии Гарольда Пинтера не могут дать сложившейся картины плана автора. Пинтер подсмотрел финал в других трёх романах Фицджеральда. Поэтому в судьбе Стара многое от Джея Гэтсби и Дика Дайвера. Казан же увлёкся деталями, сосредоточившись не на сюжетной коллизии, а конструировании былой атмосферы вымершего Голливуда, когда царствовало исключительно мнение продюсера, чьё слово превращало любого именитого режиссёра или сценариста в последнего статиста. Казану удалось не утонуть в мутных водах сомнительной ностальгии, передав единственно верную интонацию литературного оригинала рассказывающего о «последнем магнате» так, будто он всегда был первым и единственным.
10 из 10

Награды:

Оскар, 1977 год
Номинации (1):
Лучшие декорации

MediaInfo:

General
Unique ID : 218638063459806363567603689435937514280 (0xA47C28CA81BA5D76990AD060F9122328)
Complete name : H:\Downloads\Последний Магнат.mkv
Format : Matroska
Format version : Version 4 / Version 2
File size : 2.15 GiB
Duration : 2h 3mn
Overall bit rate : 2 503 Kbps
Encoded date : UTC 2013-03-26 01:48:29
Writing application : mkvmerge v6.0.0 ('Coming Up For Air') built on Jan 20 2013 09:52:00
Writing library : libebml v1.3.0 + libmatroska v1.4.0
Video
ID : 1
Format : AVC
Format/Info : Advanced Video Codec
Format profile : [url=mailto:[email protected]][email protected][/url]
Format settings, CABAC : Yes
Format settings, ReFrames : 8 frames
Codec ID : V_MPEG4/ISO/AVC
Duration : 2h 3mn
Bit rate : 2 079 Kbps
Width : 720 pixels
Height : 400 pixels
Display aspect ratio : 16:9
Frame rate mode : Constant
Frame rate : 23.976 fps
Color space : YUV
Chroma subsampling : 4:2:0
Bit depth : 8 bits
Scan type : Progressive
Bits/(Pixel*Frame) : 0.301
Stream size : 1.72 GiB (80%)
Title : The Last Tycoon
Writing library : x264 core 129 r2230 1cffe9f
Encoding settings : cabac=1 / ref=8 / deblock=1:0:0 / analyse=0x3:0x113 / me=umh / subme=9 / psy=1 / psy_rd=1.00:0.00 / mixed_ref=1 / me_range=32 / chroma_me=1 / trellis=1 / 8x8dct=1 / cqm=0 / deadzone=21,11 / fast_pskip=1 / chroma_qp_offset=-2 / threads=6 / lookahead_threads=1 / sliced_threads=0 / nr=0 / decimate=0 / interlaced=0 / bluray_compat=0 / constrained_intra=0 / bframes=3 / b_pyramid=2 / b_adapt=2 / b_bias=0 / direct=3 / weightb=1 / open_gop=0 / weightp=2 / keyint=240 / keyint_min=23 / scenecut=40 / intra_refresh=0 / rc_lookahead=40 / rc=2pass / mbtree=1 / bitrate=2079 / ratetol=25.0 / qcomp=0.60 / qpmin=10 / qpmax=51 / qpstep=4 / cplxblur=20.0 / qblur=0.5 / ip_ratio=1.40 / aq=1:1.00
Language : English
Default : Yes
Forced : No
Audio
ID : 2
Format : AC-3
Format/Info : Audio Coding 3
Mode extension : CM (complete main)
Format settings, Endianness : Big
Codec ID : A_AC3
Duration : 2h 3mn
Bit rate mode : Constant
Bit rate : 448 Kbps
Channel(s) : 6 channels
Channel positions : Front: L C R, Side: L R, LFE
Sampling rate : 48.0 KHz
Bit depth : 16 bits
Compression mode : Lossy
Stream size : 395 MiB (18%)
Title : Двухголосый закадровый профессиональный
Language : Russian
Default : Yes
Forced : No
Скриншоты:                    
Вне форума [Профиль] [ЛС]
Похожие темы
Форум Тема Автор Торрент Отв. Посл. сообщение
./templates/default/images/folder_dl.gif Приключения, детектив, боевик, триллер Кристи Агата - Занавес: Последнее дело Пуаро [Амелькин Вячеслав, 2013 г., 96 kbps, MP3] Omen
1 | 0

0 | 381

6

2013-06-04 22:10
Omen Последнее
./templates/default/images/folder_dl.gif Rock (Hard Rock) Led Zeppelin - Бутлеги, год 1977, часть 1, первый этап последнего тура по США - 1977, FLAC (tracks), lossless Omen
0 | 1

0 | 1297

1

2013-06-15 02:50
Omen Последнее
./templates/default/images/folder_dl.gif Отечественные cериалы Истребители Последний бой / Сезон: 2 / Серии: 12 из 12 (Зиновий Ройзман) [2015, Военный, драма, WEB-DLRip 1080p] Omen
1 | 0

0 | 486

6

2015-05-09 00:00
Omen Последнее
./templates/default/images/folder_dl.gif Кулинария Лариса Абрикосова | Восстановление после вирусных инфекций (2015) [FB2] Omen
1 | 0

0 | 334

9

2015-09-26 16:22
Omen Последнее
./templates/default/images/folder_dl.gif Фильмы 2011-2016 Последний обряд / Demonic (Уилл Кэнон) [2015 г., ужасы, триллер, HDRip] Region_13
1 | 0

0 | 691

27

2016-01-05 10:32
Region_13 Последнее
./templates/default/images/folder_dl.gif Фильмы 2011-2016 Последний охотник на ведьм / The Last Witch Hunter (Брек Эйснер / Breck Eisner) [2015 г., фэнтези, боевик, приключения, WEB-DLRip] Region_13
2 | 0

2 | 3022

103

2016-02-13 21:34
Dracula Последнее
./templates/default/images/folder_dl.gif Компьютерная литература Михаил Пантаев | Матанализ с человеческим лицом, или Как выжить после предельного перехода. Полный курс математического анализа. Том 2 (2016) [PDF] moralis
1 | 0

0 | 292

7

2016-03-09 21:50
moralis Последнее
./templates/default/images/folder_dl.gif Учебники, справочники, энциклопедии и словари Михаил Пантаев | Матанализ с человеческим лицом, или Как выжить после предельного перехода. Полный курс математического анализа. Том 1 (2015) [PDF] moralis
1 | 0

0 | 310

4

2016-03-09 21:51
moralis Последнее
Показать сообщения:    
Ответить на тему

Текущее время: Сегодня 17:37

Часовой пояс: GMT + 3



Вы не можете начинать темы
Вы не можете отвечать на сообщения
Вы не можете редактировать свои сообщения
Вы не можете удалять свои сообщения
Вы не можете голосовать в опросах
Вы не можете прикреплять файлы к сообщениям
Вы не можете скачивать файлы