Сегодня идет свободное скачивание без начисления Download

Сорок ружей / Forty Guns (1957) DVDRip

Ответить на тему
 
Автор
Сообщение

UndegraundMen ®

Стаж: 3 года 9 месяцев

Сообщений: 28329

Торрент-статистика

Пост 01-Апр-2013 00:07

[Цитировать]

Сорок ружей / Forty Guns (1957) DVDRip- Русское название: Сорок ружей
Оригинальное название: Forty Guns
Год выпуска: 1957
Жанр: Вестерн
Производство: США, Twentieth Century Fox Film Corporation / Globe Enterprises
Описание фильма:
Барбара Стэнуик — в роли мощной и беспощадной владелицы ранчо в Аризоне, заправляющей всем округом Кочиз. В ее владения въезжают Бэрри Салливэн и двое его братьев. Бэрри славился меткостью стрельбы, а до этого работал на генерального прокурора США. Он приехал в Тумстоун по официальному делу, что означало конфликт с нашей «ранчершой», у которой даже шериф был под каблуком.
Далее развивается предсказуемая любовь, но мирной жизни не получается из-за брата Барбары, хулиганистого задиры с пальцем на курке. Стэнуик, безусловная «звезда» тех лет, делает со своей ролью все, что положено. Салливэн вполне убедителен в роли маршала, убивающего Эриксона, после того как тот убил одного из его братьев, хотя до этого в течение целых 10 лет ему удавалось выполнять свою работу без смертоубийства.
Режиссер: Сэмюэл Фуллер
Актеры: Барбара Стэнвик, Бэрри Салливан, Дин Джэггер, Джон Эриксон, Джин Бэрри, Роберт Дикс
Продолжительность: 01:16:47
Перевод: Двуголосый закадровый

Дата мировой премьеры: 5 декабря 1958
Видеокодек: Xvid
Битрейт видео: ~1003 kbps
Размер кадра: 704 х 288
Качество видео: DVDRip
Аудиокодек: MP3
Аудио #1: ~128 kbps, 2 ch |Русский, двуголосый закадровый|
Аудио #2: ~128 kbps, 2 ch |Оригинальный|

MediaInfo

Общее
Полное имя : D:\Кино\БОЕВИКИ ПРИКЛЮЧЕНИЯ\СОРОК РУЖЕЙ.avi
Формат : AVI
Формат/Информация : Audio Video Interleave
Размер файла : 699 Мбайт
Продолжительность : 1 ч. 16 м.
Общий поток : 1273 Кбит/сек
Программа кодирования : VirtualDubMod 1.5.10.1 Рус от Stvens Inc.™ www.stvens.amillo.net (build 2366/release)
Библиотека кодирования : VirtualDubMod build 2366/release
Видео
Идентификатор : 0
Формат : MPEG-4 Visual
Профиль формата : Advanced [email protected]
Параметр BVOP формата : 2
Параметр QPel формата : Нет
Параметр GMC формата : Без точки перехода
Параметр матрицы формата : Default (MPEG)
Режим смешивания : Сжатый битовый поток
Идентификатор кодека : XVID
Идентификатор кодека/Подсказка : XviD
Продолжительность : 1 ч. 16 м.
Битрейт : 1003 Кбит/сек
Ширина : 704 пикселя
Высота : 288 пикселей
Соотношение сторон : 2,40:1
Частота кадров : 25,000 кадров/сек
Цветовое пространство : YUV
Субдискретизация насыщенности : 4:2:0
Битовая глубина : 8 бит
Тип развёртки : Прогрессивная
Метод сжатия : С потерями
Бит/(Пиксели*Кадры) : 0.198
Размер потока : 551 Мбайт (79%)
Библиотека кодирования : XviD 1.1.2 (UTC 2006-11-01)
Аудио #1
Идентификатор : 1
Формат : MPEG Audio
Версия формата : Version 1
Профиль формата : Layer 3
Режим : Joint stereo
Расширение режима : MS Stereo
Идентификатор кодека : 55
Идентификатор кодека/Подсказка : MP3
Продолжительность : 1 ч. 16 м.
Вид битрейта : Постоянный
Битрейт : 128 Кбит/сек
Каналы : 2 канала
Частота : 48,0 КГц
Метод сжатия : С потерями
Размер потока : 70,3 Мбайт (10%)
Выравнивание : Соединение по промежуткам
Продолжительность промежутка : 40 мс. (1,00 видеокадр)
Время предзагрузки промежутка : 504 мс.
Аудио #2
Идентификатор : 2
Формат : MPEG Audio
Версия формата : Version 1
Профиль формата : Layer 3
Режим : Joint stereo
Расширение режима : MS Stereo
Идентификатор кодека : 55
Идентификатор кодека/Подсказка : MP3
Продолжительность : 1 ч. 16 м.
Вид битрейта : Постоянный
Битрейт : 128 Кбит/сек
Каналы : 2 канала
Частота : 48,0 КГц
Метод сжатия : С потерями
Размер потока : 70,3 Мбайт (10%)
Выравнивание : Соединение по промежуткам
Продолжительность промежутка : 40 мс. (1,00 видеокадр)
Время предзагрузки промежутка : 504 мс.
Библиотека кодирования : LAME3.96.1
Скриншоты:

Трейлер

Время раздачи: 24/7, возможны перерывы
Вне форума [Профиль] [ЛС]
Показать сообщения:    
Ответить на тему

Текущее время: Сегодня 16:38

Часовой пояс: GMT + 3



Вы не можете начинать темы
Вы не можете отвечать на сообщения
Вы не можете редактировать свои сообщения
Вы не можете удалять свои сообщения
Вы не можете голосовать в опросах
Вы не можете прикреплять файлы к сообщениям
Вы не можете скачивать файлы