Сегодня идет свободное скачивание без начисления Download

Белый Шейх / Lo sceicco bianco (1952) DVDRip

Ответить на тему
 
Автор
Сообщение

UndegraundMen ®

Стаж: 3 года 9 месяцев

Сообщений: 28329

Торрент-статистика

Пост 01-Апр-2013 00:07

[Цитировать]

Белый Шейх / Lo sceicco bianco (1952) DVDRip- Русское название: Белый Шейх
Оригинальное название: Lo sceicco bianco
Год выпуска: 1952
Жанр: Драма, Мелодрама, Комедия
Производство: Италия, OFI / P.D.C.
Описание фильма:
Семейная пара обычных итальянцев отправляется в Рим. Муж хочет представить жену своим родственникам. В это время в окрестностях Рима снимают сериальный фотокомикс для популярного журнала, посвященный похождениям отважного Белого Шейха. Белого Шейха изображает актер, в которого заочно влюблена жена из этой семейной пары. Жене удаётся обмануть мужа и убежать из гостиничного номера для того, чтобы повидаться с любимым актером. Муж пытается найти свою жену. А она в это время успевает сняться для фотокомикса и разочароваться в своём кумире — в жизни он оказался совсем не таким, каким она себе его представляла.
Режиссер: Федерико Феллини
Композитор: Нино Рота
Актеры: Альберто Сорди, Брунелла Бово, Леопольдо Триесте, Джульетта Мазина, Лилия Ланди, Эрнесто Альмиранте, Фанни Маркио, Джина Маскетти, Йоле Сильвани, Энцо Маджо
Продолжительность: 01:26:03
Перевод: Двуголосый закадровый

Дата мировой премьеры: 6 сентября 1952 (Венецианский кинофестиваль)
Дата выхода DVD релиза: 2 декабря 2009
Видеокодек: Xvid
Битрейт видео: ~1006 kbps
Размер кадра: 512 х 384
Качество видео: DVDRip
Аудиокодек: MP3
Битрейт аудио: 112 kbps

MediaInfo

Общее
Полное имя : D:\Кино\Белый шейх (Феллини).avi
Формат : AVI
Формат/Информация : Audio Video Interleave
Размер файла : 694 Мбайт
Продолжительность : 1 ч. 26 м.
Общий поток : 1127 Кбит/сек
Программа кодирования : VirtualDubMod 1.5.4.1 (build 2178/release)
Библиотека кодирования : VirtualDubMod build 2178/release
Видео
Идентификатор : 0
Формат : MPEG-4 Visual
Профиль формата : Advanced [email protected]
Параметр BVOP формата : 1
Параметр QPel формата : Нет
Параметр GMC формата : Без точки перехода
Параметр матрицы формата : Выборочная
Идентификатор кодека : XVID
Идентификатор кодека/Подсказка : XviD
Продолжительность : 1 ч. 26 м.
Битрейт : 1006 Кбит/сек
Ширина : 512 пикселей
Высота : 384 пикселя
Соотношение сторон : 4:3
Частота кадров : 23,976 кадра/сек
Цветовое пространство : YUV
Субдискретизация насыщенности : 4:2:0
Битовая глубина : 8 бит
Тип развёртки : Прогрессивная
Метод сжатия : С потерями
Бит/(Пиксели*Кадры) : 0.213
Размер потока : 619 Мбайт (89%)
Библиотека кодирования : XviD 1.2.0SMP (UTC 2006-01-08)
Аудио
Идентификатор : 1
Формат : MPEG Audio
Версия формата : Version 1
Профиль формата : Layer 3
Идентификатор кодека : 55
Идентификатор кодека/Подсказка : MP3
Продолжительность : 1 ч. 26 м.
Вид битрейта : Постоянный
Битрейт : 112 Кбит/сек
Каналы : 1 канал
Частота : 48,0 КГц
Метод сжатия : С потерями
Размер потока : 68,9 Мбайт (10%)
Выравнивание : Соединение по промежуткам
Продолжительность промежутка : 42 мс. (1,00 видеокадр)
Время предзагрузки промежутка : 504 мс.
Библиотека кодирования : LAME3.92
Скриншоты:

Время раздачи: 24/7, возможны перерывы
Вне форума [Профиль] [ЛС]
Показать сообщения:    
Ответить на тему

Текущее время: Сегодня 20:59

Часовой пояс: GMT + 3



Вы не можете начинать темы
Вы не можете отвечать на сообщения
Вы не можете редактировать свои сообщения
Вы не можете удалять свои сообщения
Вы не можете голосовать в опросах
Вы не можете прикреплять файлы к сообщениям
Вы не можете скачивать файлы