Сегодня идет свободное скачивание без начисления Download

Неприятности с Гарри / The Trouble with Harry (1955) BDRip [720p]

Ответить на тему
 
Автор
Сообщение

UndegraundMen ®

Стаж: 3 года 9 месяцев

Сообщений: 28329

Торрент-статистика

Пост 01-Апр-2013 00:07

[Цитировать]

Неприятности с Гарри / The Trouble with Harry (1955) BDRip [720p]
- «A comedy about a corpse.» - «Alfred Hitchcock Blu-ray Collection» - Русское название: Неприятности с Гарри
Оригинальное название: The Trouble with Harry
Страна: США
Год выпуска: 1955
Жанр: триллер, комедия, детектив
Описание фильма:
Комедия о беспокойном… трупе, который создает множество умопомрачительных проблем для мирных соседей в Новой Англии. Да, человека убили, соседям это не нравится. Хичкоку удается сделать это не свойственной для него, блистательной комедией.
Режиссер: Альфред Хичкок
Актеры: Эдмунд Гвенн, Джон Форсайт, Милдред Нэтвик, Милдред Даннок, Джерри Мэзерс, Ройал Дэно, Паркер Феннелли, Бэрри Мэколлам, Дуайт Марфилд, Ширли МакЛейн
Продолжительность: 01:39:23
Перевод: Дублированный, Многоголосый закадровый
Субтитры: Английский, Русский (BD, forced, SomeWax)

Рейтинг MPAA: PG – лицам до 13 лет обязательное присутствие родителей!!!
Дата мировой премьеры: 27 сентября 1955
Видеокодек: MPEG-4 AVC
Битрейт видео: ~14.2 Mbps
Размер кадра: 1920x1040
Качество видео: BDRip
Аудио:
1. DTS Русский 2.0 / 48 kHz / 448 kbps / 24-bit (Дублированный)
2. Dolby Digital Русский 2.0 / 48 kHz / 192 kbps (Многоголосый закадровый, SomeWax)
3. Dolby Digital Русский 2.0 / 48 kHz / 192 kbps (Многоголосый закадровый, DVD Магия)
4. Dolby Digital Русский 2.0 / 48 kHz / 192 kbps (Многоголосый закадровый, Петербург 5-й канал)
5. DTS Английский 2.0 / 48 kHz / 755 kbps / 24-bit

Знаете ли вы, что...

Дебютная роль Ширли МакЛэйн. Картина снималась в Вермонте.
Натурным съемкам в Вермонте мешал сильный ливень, поэтому многие сцены были сняты в декорациях, построенных в местной гимназии.
Хичкок анонимно купил права на роман за 11 тыс. долларов.
Хичкока можно видеть проходящим мимо припаркованного лимузина миллионера, рассматривающего картины Сэма.

...из книги «3500 кинорецензий»

Если кто-то и сомневается в наличии у Альфреда Хичкока безусловного дара воспринимать действительность в комическом свете, то данная картина должна бы разубедить в этом. Хотя хичкоковское понимание природы смешного весьма своеобразно. И не будь он англичанином до мозга костей даже в своих американских фильмах, можно было бы попытаться найти генеалогию этой «чёрной комедии» выдающегося мастера кино, например, во французском жанре гиньоля. Но Хичкоку всегда было свойственно особое чувство истинно британского абсурдного юмора — не случайно, что лента «Неприятности с Хэрри», явно недооценённая в момент своего появления в США, номинировалась на соискание премии БАФТА в категории лучших работ года как раз в Великобритании. И типичный для его творчества мотив «вины невинного» доведён здесь до полного нонсенса.
Обнаруженный маленьким мальчиком Арни на лесной поляне труп этого самого Хэрри, заявленного в названии картины, доставит немало беспокойств добропорядочным жителям городка в штате Вермонт, что находится в Новой Англии. Да и покойному предстоит быть несколько раз похороненным и выкопанным из могилы, потому что различные люди совершенно по-разному понимают, как же им следует реагировать в сложившейся странной ситуации и решать проблему неожиданно свалившихся на них неприятностей. И прежде всего, в резком контрасте с «могильным юмором» этого криминального сюжета дан невероятно сочный по краскам, по-настоящему праздничный мир разноцветных осенних пейзажей, более пригодный для буколических живописных полотен о «рае земном», из которого словно и не желает вообще удаляться бренное тело некоего человека по имени Хэрри.

MediaInfo

The.Trouble.with.Harry.1955.1080p.BluRay.4xRus.Eng.mkv
Format : Matroska
Format version : Version 4 / Version 2
File size : 11.1 GiB
Duration : 1h 39mn
Overall bit rate : 16.0 Mbps
Movie name : The Trouble with Harry (1955)
Encoded date : UTC 2013-03-22 03:45:05
Writing application : mkvmerge v6.1.0 ('Old Devil') built on Mar 2 2013 14:32:37
Writing library : libebml v1.3.0 + libmatroska v1.4.0
Video
ID : 1
Format : AVC
Format/Info : Advanced Video Codec
Format profile : [url=mailto:[email protected]][email protected][/url]
Format settings, CABAC : Yes
Format settings, ReFrames : 4 frames
Codec ID : V_MPEG4/ISO/AVC
Duration : 1h 39mn
Bit rate : 14.2 Mbps
Width : 1 920 pixels
Height : 1 040 pixels
Display aspect ratio : 1.85:1
Frame rate mode : Constant
Frame rate : 23.976 fps
Color space : YUV
Chroma subsampling : 4:2:0
Bit depth : 8 bits
Scan type : Progressive
Bits/(Pixel*Frame) : 0.296
Stream size : 9.63 GiB (87%)
Title : The Trouble with Harry (1955)
Writing library : x264 core 130 r2273 b3065e6
Encoding settings : cabac=1 / ref=4 / deblock=1:-1:-1 / analyse=0x3:0x113 / me=umh / subme=10 / psy=1 / psy_rd=1.00:0.20 / mixed_ref=1 / me_range=32 / chroma_me=1 / trellis=2 / 8x8dct=1 / cqm=0 / deadzone=21,11 / fast_pskip=0 / chroma_qp_offset=-3 / threads=12 / lookahead_threads=1 / sliced_threads=0 / nr=0 / decimate=0 / interlaced=0 / bluray_compat=0 / constrained_intra=0 / bframes=6 / b_pyramid=2 / b_adapt=2 / b_bias=0 / direct=3 / weightb=1 / open_gop=0 / weightp=2 / keyint=240 / keyint_min=23 / scenecut=40 / intra_refresh=0 / rc_lookahead=40 / rc=2pass / mbtree=0 / bitrate=14182 / ratetol=1.0 / qcomp=0.60 / qpmin=0 / qpmax=69 / qpstep=4 / cplxblur=20.0 / qblur=0.5 / vbv_maxrate=50000 / vbv_bufsize=62500 / nal_hrd=none / ip_ratio=1.40 / pb_ratio=1.30 / aq=1:1.00
Language : English
Default : Yes
Forced : No
Audio #1
ID : 2
Format : DTS
Format/Info : Digital Theater Systems
Mode : 16
Format settings, Endianness : Big
Codec ID : A_DTS
Duration : 1h 39mn
Bit rate mode : Constant
Bit rate : 447 Kbps
Channel(s) : 2 channels
Channel positions : Front: L R
Sampling rate : 48.0 KHz
Bit depth : 24 bits
Compression mode : Lossy
Stream size : 318 MiB (3%)
Title : DTS 2 ch 448 kbps DUB
Language : Russian
Default : Yes
Forced : No
Audio #2
ID : 3
Format : AC-3
Format/Info : Audio Coding 3
Mode extension : CM (complete main)
Format settings, Endianness : Big
Codec ID : A_AC3
Duration : 1h 39mn
Bit rate mode : Constant
Bit rate : 192 Kbps
Channel(s) : 2 channels
Channel positions : Front: L R
Sampling rate : 48.0 KHz
Bit depth : 16 bits
Compression mode : Lossy
Stream size : 137 MiB (1%)
Title : AC3 2 ch 192 kbps MVO(SomeWax)
Language : Russian
Default : No
Forced : No
Audio #3
ID : 4
Format : AC-3
Format/Info : Audio Coding 3
Mode extension : CM (complete main)
Format settings, Endianness : Big
Codec ID : A_AC3
Duration : 1h 39mn
Bit rate mode : Constant
Bit rate : 192 Kbps
Channel(s) : 2 channels
Channel positions : Front: L R
Sampling rate : 48.0 KHz
Bit depth : 16 bits
Compression mode : Lossy
Stream size : 137 MiB (1%)
Title : AC3 2 ch 192 kbps MVO(DVD Magija)
Language : Russian
Default : No
Forced : No
Audio #4
ID : 5
Format : AC-3
Format/Info : Audio Coding 3
Mode extension : CM (complete main)
Format settings, Endianness : Big
Codec ID : A_AC3
Duration : 1h 39mn
Bit rate mode : Constant
Bit rate : 192 Kbps
Channel(s) : 2 channels
Channel positions : Front: L R
Sampling rate : 48.0 KHz
Bit depth : 16 bits
Compression mode : Lossy
Stream size : 137 MiB (1%)
Title : AC3 2 ch 192 kbps MVO(Peterburg 5-j kanal)
Language : Russian
Default : No
Forced : No
Audio #5
ID : 6
Format : DTS
Format/Info : Digital Theater Systems
Mode : 16
Format settings, Endianness : Big
Codec ID : A_DTS
Duration : 1h 39mn
Bit rate mode : Constant
Bit rate : 755 Kbps
Channel(s) : 2 channels
Channel positions : Front: L R
Sampling rate : 48.0 KHz
Bit depth : 24 bits
Compression mode : Lossy
Stream size : 536 MiB (5%)
Title : DTS 2 ch 755 kbps Original
Language : English
Default : No
Forced : No
Text #1
ID : 7
Format : UTF-8
Codec ID : S_TEXT/UTF8
Codec ID/Info : UTF-8 Plain Text
Title : BD
Language : Russian
Default : No
Forced : No
Text #2
ID : 8
Format : UTF-8
Codec ID : S_TEXT/UTF8
Codec ID/Info : UTF-8 Plain Text
Title : SomeWax
Language : Russian
Default : No
Forced : No
Text #3
ID : 9
Format : UTF-8
Codec ID : S_TEXT/UTF8
Codec ID/Info : UTF-8 Plain Text
Title : forced
Language : Russian
Default : No
Forced : No
Text #4
ID : 10
Format : UTF-8
Codec ID : S_TEXT/UTF8
Codec ID/Info : UTF-8 Plain Text
Title : Original
Language : English
Default : No
Forced : No
Menu
00:00:00.000 : en:Main Titles
00:01:52.070 : en:Hunting
00:05:15.440 : en:Harry
00:14:06.220 : en:Mr. Marlowe
00:20:47.496 : en:Miss Gravely
00:24:20.083 : en:A Portrait
00:38:01.696 : en:The Truth About Harry
00:43:15.050 : en:Coffee and Muffins
00:47:21.630 : en:A Burial Place
00:54:20.882 : en:Whodunit?
00:56:49.864 : en:The Old Salt's Home
01:02:55.062 : en:No Rest For Harry
01:10:03.657 : en:Art Sale
01:14:28.005 : en:Harry's Shoes
01:21:21.835 : en:A Reason For Murder
01:26:25.972 : en:Calvin Wiggs
01:34:42.760 : en:The Doctor's Diagnosis
01:37:19.582 : en:Repeat Performance
Скриншоты:
-Раздача: 24/7-Не забываем говорить спасибо, Вам не сложно, а мне приятно)))
Прошу с раздачи не уходить! Скачал сам, дай и другим скачать!!!
Приятного просмотра)))
Вне форума [Профиль] [ЛС]
Похожие темы
Форум Тема Автор Торрент Отв. Посл. сообщение
./templates/default/images/folder_dl.gif Медицина и Здоровье Михаил Титов | Секреты избавления от неприятного запаха изо рта (2015) [PDF] moralis
1 | 0

0 | 178

2

2016-03-15 22:26
moralis Последнее
Показать сообщения:    
Ответить на тему

Текущее время: Сегодня 22:21

Часовой пояс: GMT + 3



Вы не можете начинать темы
Вы не можете отвечать на сообщения
Вы не можете редактировать свои сообщения
Вы не можете удалять свои сообщения
Вы не можете голосовать в опросах
Вы не можете прикреплять файлы к сообщениям
Вы не можете скачивать файлы