Сегодня идет свободное скачивание без начисления Download

Птицы / The Birds (1963) BDRip [H.264]

Ответить на тему
 
Автор
Сообщение

UndegraundMen ®

Стаж: 3 года 9 месяцев

Сообщений: 28329

Торрент-статистика

Пост 05-Апр-2013 00:05

[Цитировать]

Птицы / The Birds (1963) BDRip- Русское название: Птицы
Оригинальное название: The Birds
Год выпуска: 1963
Страна: США
Слоган: «...And remember, the next scream you hear could be your own!»
Жанр: ужасы, триллер--Режиссер: Альфред Хичкок
Актеры: Типпи Хедрен (Melanie Daniels), Сюзанн Плешетт (Annie Hayworth), Род Тейлор (Mitch Brenner), Джессика Тэнди (Lydia Brenner), Вероника Картрайт (Cathy Brenner), Этель Гриффиз (Mrs. Bundy - Ornithologist), Чарльз МакГроу (Sebastian Sholes - Fisherman in Diner), Дарлин Лэнг (Hysterical Mother in Diner), Рут МакДевитт (Mrs. MacGruder - Pet Store Clerk), Джо Мэнтелл (Traveling Salesman at Diner's Bar), Малкольм Аттербери (Deputy Al Malone), Карл Свенсон (Drunken Doomsayer in Diner)-Описание фильма: Классический фильм А. Хичкока, в котором ужасающая картина нападения птиц на американский поселок переплетается с историей любовных взаимоотношений молодой женщины с понравившимся ей мужчиной.- -Продолжительность: 01:59:29
Перевод: Многоголосый закадровый, авторский
Язык субтитров: Русские, английские
Вид субтитров: Вшитые отключаемые--Качество видео: BDRip
Видеокодек: MPEG-4 AVC/H.264
Битрейт видео: ~3500 Кбит/с
Размер кадра: 1024x552
Аудио 1: Русский: AC3, 2 ch, 192 Кбит/с - Многоголосый (BD EUR / Премьер Видео)
Аудио 2: Русский: AC3, 2 ch, 192 Кбит/с - Многоголосый (SomeWax / DVD Магия)
Аудио 3: Русский: AC3, 2 ch, 192 Кбит/с - Многоголосый (ОРТ)
Аудио 4: Русский: AC3, 2 ch, 192 Кбит/с - Авторский (В.Горчаков)
Аудио 5: Украинский: AC3, 2 ch, 192 Кбит/с - Авторский (Деваль Видео)
Аудио 6: Английский: AC3, 2 ch, 256 Кбит/с
-

MediaInfo:

General
Unique ID : 223162485390248902590594155332456644683 (0xA7E38803C7FA2D2E857A016754B3804B)
Complete name : D:\Pticy.1963.(H.264).BDRip.mkv
Format : Matroska
Format version : Version 2
File size : 3.94 GiB
Duration : 1h 59mn
Overall bit rate : 4 719 Kbps
Encoded date : UTC 2013-04-03 12:03:24
Writing application : mkvmerge v5.4.0 ('Piper') built on Mar 10 2012 13:34:39
Writing library : libebml v1.2.3 + libmatroska v1.3.0
Video
ID : 1
Format : AVC
Format/Info : Advanced Video Codec
Format profile : [url=mailto:[email protected]][email protected][/url]
Format settings, CABAC : Yes
Format settings, ReFrames : 9 frames
Codec ID : V_MPEG4/ISO/AVC
Duration : 1h 59mn
Bit rate : 3 500 Kbps
Width : 1 024 pixels
Height : 552 pixels
Display aspect ratio : 1.85:1
Frame rate mode : Constant
Frame rate : 23.976 fps
Color space : YUV
Chroma subsampling : 4:2:0
Bit depth : 8 bits
Scan type : Progressive
Bits/(Pixel*Frame) : 0.258
Stream size : 2.85 GiB (72%)
Writing library : x264 core 125 r2208 d9d2288
Encoding settings : cabac=1 / ref=9 / deblock=1:-2:-2 / analyse=0x3:0x133 / me=umh / subme=11 / psy=1 / psy_rd=1.00:0.20 / mixed_ref=1 / me_range=32 / chroma_me=1 / trellis=2 / 8x8dct=1 / cqm=0 / deadzone=21,11 / fast_pskip=0 / chroma_qp_offset=-3 / threads=6 / lookahead_threads=1 / sliced_threads=0 / nr=0 / decimate=0 / interlaced=0 / bluray_compat=0 / constrained_intra=0 / bframes=7 / b_pyramid=2 / b_adapt=2 / b_bias=0 / direct=3 / weightb=1 / open_gop=0 / weightp=2 / keyint=240 / keyint_min=23 / scenecut=40 / intra_refresh=0 / rc=2pass / mbtree=0 / bitrate=3500 / ratetol=1.0 / qcomp=0.60 / qpmin=0 / qpmax=69 / qpstep=4 / cplxblur=20.0 / qblur=0.5 / ip_ratio=1.40 / pb_ratio=1.30 / aq=1:1.00
Language : English
Default : Yes
Forced : No
Audio #1
ID : 2
Format : AC-3
Format/Info : Audio Coding 3
Mode extension : CM (complete main)
Format settings, Endianness : Big
Codec ID : A_AC3
Duration : 1h 59mn
Bit rate mode : Constant
Bit rate : 192 Kbps
Channel(s) : 2 channels
Channel positions : Front: L R
Sampling rate : 48.0 KHz
Bit depth : 16 bits
Compression mode : Lossy
Stream size : 164 MiB (4%)
Title : Многоголосый (BD EUR / Премьер Видео)
Language : Russian
Default : Yes
Forced : No
Audio #2
ID : 3
Format : AC-3
Format/Info : Audio Coding 3
Mode extension : CM (complete main)
Format settings, Endianness : Big
Codec ID : A_AC3
Duration : 1h 59mn
Bit rate mode : Constant
Bit rate : 192 Kbps
Channel(s) : 2 channels
Channel positions : Front: L R
Sampling rate : 48.0 KHz
Bit depth : 16 bits
Compression mode : Lossy
Stream size : 164 MiB (4%)
Title : Многоголосый (SomeWax / DVD Магия)
Language : Russian
Default : No
Forced : No
Audio #3
ID : 4
Format : AC-3
Format/Info : Audio Coding 3
Format profile : Dolby Digital
Mode extension : CM (complete main)
Format settings, Endianness : Big
Codec ID : A_AC3
Duration : 1h 59mn
Bit rate mode : Constant
Bit rate : 192 Kbps
Channel(s) : 2 channels
Channel positions : Front: L R
Sampling rate : 48.0 KHz
Bit depth : 16 bits
Compression mode : Lossy
Stream size : 164 MiB (4%)
Title : Многоголосый (ОРТ)
Language : Russian
Default : No
Forced : No
Audio #4
ID : 5
Format : AC-3
Format/Info : Audio Coding 3
Mode extension : CM (complete main)
Format settings, Endianness : Big
Codec ID : A_AC3
Duration : 1h 59mn
Bit rate mode : Constant
Bit rate : 192 Kbps
Channel(s) : 2 channels
Channel positions : Front: L R
Sampling rate : 48.0 KHz
Bit depth : 16 bits
Compression mode : Lossy
Stream size : 164 MiB (4%)
Title : Горчаков
Language : Russian
Default : No
Forced : No
Audio #5
ID : 6
Format : AC-3
Format/Info : Audio Coding 3
Mode extension : CM (complete main)
Format settings, Endianness : Big
Codec ID : A_AC3
Duration : 1h 59mn
Bit rate mode : Constant
Bit rate : 192 Kbps
Channel(s) : 2 channels
Channel positions : Front: L R
Sampling rate : 48.0 KHz
Bit depth : 16 bits
Compression mode : Lossy
Stream size : 164 MiB (4%)
Title : Деваль Видео
Language : Russian
Default : No
Forced : No
Audio #6
ID : 7
Format : AC-3
Format/Info : Audio Coding 3
Mode extension : CM (complete main)
Format settings, Endianness : Big
Codec ID : A_AC3
Duration : 1h 59mn
Bit rate mode : Constant
Bit rate : 256 Kbps
Channel(s) : 2 channels
Channel positions : Front: L R
Sampling rate : 48.0 KHz
Bit depth : 16 bits
Compression mode : Lossy
Stream size : 219 MiB (5%)
Language : English
Default : No
Forced : No
Text #1
ID : 8
Format : UTF-8
Codec ID : S_TEXT/UTF8
Codec ID/Info : UTF-8 Plain Text
Language : Russian
Default : No
Forced : No
Text #2
ID : 9
Format : UTF-8
Codec ID : S_TEXT/UTF8
Codec ID/Info : UTF-8 Plain Text
Language : English
Default : No
Forced : No
Menu
00:00:00.000 : :Chapter 01
00:01:44.896 : :Chapter 02
00:09:35.866 : :Chapter 03
00:20:05.871 : :Chapter 04
00:29:35.356 : :Chapter 05
00:32:16.225 : :Chapter 06
00:40:59.582 : :Chapter 07
00:47:49.157 : :Chapter 08
00:54:01.529 : :Chapter 09
00:58:52.737 : :Chapter 10
01:08:16.050 : :Chapter 11
01:15:48.335 : :Chapter 12
01:24:26.227 : :Chapter 13
01:26:19.299 : :Chapter 14
01:28:02.193 : :Chapter 15
01:29:43.169 : :Chapter 16
01:33:55.588 : :Chapter 17
01:45:14.766 : :Chapter 18
01:51:16.503 : :Chapter 19
01:56:19.472 : :Chapter 20
01:59:29.579 : :Chapter 21
-Скриншоты:
         -Время раздачи: С 09:00 до 24:00
Вне форума [Профиль] [ЛС]
Показать сообщения:    
Ответить на тему

Текущее время: Сегодня 22:48

Часовой пояс: GMT + 3



Вы не можете начинать темы
Вы не можете отвечать на сообщения
Вы не можете редактировать свои сообщения
Вы не можете удалять свои сообщения
Вы не можете голосовать в опросах
Вы не можете прикреплять файлы к сообщениям
Вы не можете скачивать файлы