Сегодня идет свободное скачивание без начисления Download

Приключения Робин Гуда / The Adventures Of Robin Hood (1938) BDRip [720p]

Ответить на тему
 
Автор
Сообщение

UndegraundMen ®

Стаж: 3 года 9 месяцев

Сообщений: 28329

Торрент-статистика

Пост 05-Апр-2013 00:05

[Цитировать]

Приключения Робин Гуда / The Adventures Of Robin Hood (1938) BDRip [720p]
- «Excitement...Danger...Suspense...as this classic adventure story sweeps across the screen!» - Название: Приключения Робин Гуда
Оригинальное название: The Adventures Of Robin Hood
Год выпуска: 1938
Жанр: Приключения
Выпущено: США, Warner Bros. Pictures Co.
Описание фильма:
Как известно из легенд, добрый король английский Ричард отправился в Крестовый поход и попал там в плен. Принц Джон захватил трон и, движимый жаждой наживы, начал обирать народ. Разоренный им сэр Робин Локсли ушел в Шервудский лес и под именем Робин Гуда возглавил банду разбойников, объявив войну прихвостням принца Джона — рыцарю Гаю Гизборну и трусливому шерифу Ноттингема. Попутно он сражался за сердце томно-мечтательной леди Марианны — прекрасной Оливии Де Хэвилленд.
Режиссер: Майкл Кертис
В ролях: Эррол Флинн, Оливия Де Хэвиллэнд, Бейзил Рэтбоун, Клод Рейнс, Патрик Ноулз, Юджин Паллет, Алан Хейл, Мелвилл Купер, Иэн Хантер, Уна О`Коннор
Продолжительность: 01:41:55
Перевод: Многоголосый закадровый, Двухголосый закадровый, Одноголосый закадровый
Субтитры: Английские, Русские, Французские, Испансике

Рейтинг MPAA: PG 13– лицам до 13 лет обязательное присутствие родителей!!!
Дата мировой премьеры: 14 мая 1938
Дата DVD премьеры: 15 марта 2012, «New Dream media»
Видеокодек: MPEG-4 AVC
Битрейт видео: ~ 6863 kbps
Размер кадра: 984x720
Качество видео: BDRip
Аудио:
1. Dolby Digital Русский 2.0 / 48 kHz / 192 kbps (Многоголосый закадровый, SomeWax)
2. Dolby Digital Русский 2.0 / 48 kHz / 192 kbps (Многоголосый закадровый, New Dream Media)
3. Dolby Digital Русский 2.0 / 48 kHz / 192 kbps (Многоголосый закадровый, DVD Магия)
4. Dolby Digital Русский 2.0 / 48 kHz / 192 kbps (Многоголосый закадровый, Светла)
5. Dolby Digital Русский 2.0 / 48 kHz / 192 kbps (Двухголосый закадровый, РенТВ)
6. Dolby Digital Русский 2.0 / 48 kHz / 192 kbps (Одноголосый закадровый, Master Tape)
7. Dolby Digital Английский 1.0 / 48 kHz / 192 kbps / DN -4dB

Награды и номинации

1939 — «Оскар»
- Карл Уэйл в номинации Лучшая работа художника-постановщика
- Ральф Доусен в номинации Лучший монтаж
- Эрих Вольфганг Корнгольд в номинации Лучшая оригинальная музыка к фильму
2004 — «Сатурн» — Лучшее DVD-издание классического фильма
Номинации
- 1939 — «Оскар» — Лучший фильм

MediaInfo

General
Complete name : F:\ADVENURES OF ROBIN HOOD\The_ Adventures_ of_ Robin_ Hood_1938_720p-Rus_Eng_HDCLUB.mkv
Format : Matroska
File size : 5.96 GiB
Duration : 1h 41mn
Overall bit rate : 8 374 Kbps
Encoded date : UTC 2013-03-31 10:27:15
Writing application : mkvmerge v6.0.0 ('Coming Up For Air') built on Jan 20 2013 09:52:00
Writing library : libebml v1.3.0 + libmatroska v1.4.0
Video
ID : 1
Format : AVC
Format/Info : Advanced Video Codec
Format profile : [url=mailto:[email protected]][email protected][/url]
Format settings, CABAC : Yes
Format settings, ReFrames : 11 frames
Muxing mode : Container [email protected]
Codec ID : V_MPEG4/ISO/AVC
Duration : 1h 41mn
Bit rate : 6 863 Kbps
Width : 984 pixels
Height : 720 pixels
Display aspect ratio : 4:3
Frame rate : 23.976 fps
Resolution : 24 bits
Colorimetry : 4:2:0
Scan type : Progressive
Bits/(Pixel*Frame) : 0.404
Stream size : 4.88 GiB (82%)
Writing library : x264 core 130 r2273kMod b3065e6
Encoding settings : cabac=1 / ref=11 / deblock=1:-3:-3 / analyse=0x3:0x113 / me=esa / subme=10 / psy=1 / fade_compensate=0.00 / psy_rd=1.00:0.05 / mixed_ref=1 / me_range=48 / chroma_me=1 / trellis=2 / 8x8dct=1 / cqm=0 / deadzone=21,11 / fast_pskip=1 / chroma_qp_offset=-3 / threads=6 / lookahead_threads=1 / sliced_threads=0 / nr=0 / decimate=1 / interlaced=0 / bluray_compat=0 / constrained_intra=0 / bframes=12 / b_pyramid=2 / b_adapt=2 / b_bias=0 / direct=3 / weightb=1 / open_gop=0 / weightp=2 / keyint=240 / keyint_min=23 / scenecut=40 / intra_refresh=0 / rc_lookahead=40 / rc=crf / mbtree=0 / crf=17.4500 / qcomp=0.75 / qpmin=10 / qpmax=51 / qpstep=4 / vbv_maxrate=50000 / vbv_bufsize=62500 / crf_max=0.0 / nal_hrd=none / ip_ratio=1.40 / pb_ratio=1.30 / aq=1:0.80
matrix_coefficients : BT.709-5, BT.1361, IEC 61966-2-4 709, SMPTE RP177
Audio #1
ID : 2
Format : AC-3
Format/Info : Audio Coding 3
Codec ID : A_AC3
Duration : 1h 41mn
Bit rate mode : Constant
Bit rate : 192 Kbps
Channel(s) : 2 channels
Channel positions : L R
Sampling rate : 48.0 KHz
Stream size : 140 MiB (2%)
Title : Многоголосый закадровый, SomeWax
Language : Russian
Audio #2
ID : 3
Format : AC-3
Format/Info : Audio Coding 3
Codec ID : A_AC3
Duration : 1h 41mn
Bit rate mode : Constant
Bit rate : 192 Kbps
Channel(s) : 2 channels
Channel positions : L R
Sampling rate : 48.0 KHz
Stream size : 140 MiB (2%)
Title : Многоголосый закадровый, New Dream Media
Language : Russian
Audio #3
ID : 4
Format : AC-3
Format/Info : Audio Coding 3
Codec ID : A_AC3
Duration : 1h 41mn
Bit rate mode : Constant
Bit rate : 192 Kbps
Channel(s) : 2 channels
Channel positions : L R
Sampling rate : 48.0 KHz
Stream size : 140 MiB (2%)
Title : Многоголосый закадровый, DVD Магия
Language : Russian
Audio #4
ID : 5
Format : AC-3
Format/Info : Audio Coding 3
Codec ID : A_AC3
Duration : 1h 41mn
Bit rate mode : Constant
Bit rate : 192 Kbps
Channel(s) : 2 channels
Channel positions : L R
Sampling rate : 48.0 KHz
Stream size : 140 MiB (2%)
Title : Многоголосый закадровый, Светла
Language : Russian
Audio #5
ID : 6
Format : AC-3
Format/Info : Audio Coding 3
Codec ID : A_AC3
Duration : 1h 41mn
Bit rate mode : Constant
Bit rate : 192 Kbps
Channel(s) : 2 channels
Channel positions : L R
Sampling rate : 48.0 KHz
Stream size : 140 MiB (2%)
Title : Двухголосый закадровый, РенТВ
Language : Russian
Audio #6
ID : 7
Format : AC-3
Format/Info : Audio Coding 3
Codec ID : A_AC3
Duration : 1h 41mn
Bit rate mode : Constant
Bit rate : 192 Kbps
Channel(s) : 2 channels
Channel positions : L R
Sampling rate : 48.0 KHz
Stream size : 140 MiB (2%)
Title : Одноголосый закадровый, Master Tape
Language : Russian
Audio #7
ID : 8
Format : AC-3
Format/Info : Audio Coding 3
Codec ID : A_AC3
Duration : 1h 41mn
Bit rate mode : Constant
Bit rate : 192 Kbps
Channel(s) : 1 channel
Channel positions : C
Sampling rate : 48.0 KHz
Stream size : 140 MiB (2%)
Text #1
ID : 9
Format : UTF-8
Codec ID : S_TEXT/UTF8
Codec ID/Info : UTF-8 Plain Text
Language : Russian
Text #2
ID : 10
Format : UTF-8
Codec ID : S_TEXT/UTF8
Codec ID/Info : UTF-8 Plain Text
Text #3
ID : 11
Format : UTF-8
Codec ID : S_TEXT/UTF8
Codec ID/Info : UTF-8 Plain Text
Title : SDH
Text #4
ID : 12
Format : UTF-8
Codec ID : S_TEXT/UTF8
Codec ID/Info : UTF-8 Plain Text
Language : French
Text #5
ID : 13
Format : UTF-8
Codec ID : S_TEXT/UTF8
Codec ID/Info : UTF-8 Plain Text
Language : Spanish
Menu
00:00:00.000 : en:00:00:00.000
00:03:17.197 : en:00:03:17.197
00:06:19.044 : en:00:06:19.044
00:09:30.569 : en:00:09:30.569
00:12:03.556 : en:00:12:03.556
00:16:37.830 : en:00:16:37.830
00:20:15.047 : en:00:20:15.047
00:23:37.415 : en:00:23:37.415
00:25:21.853 : en:00:25:21.853
00:27:44.829 : en:00:27:44.829
00:33:24.502 : en:00:33:24.502
00:38:27.972 : en:00:38:27.972
00:42:19.870 : en:00:42:19.870
00:46:45.302 : en:00:46:45.302
00:48:29.907 : en:00:48:29.907
00:53:01.678 : en:00:53:01.678
00:57:23.606 : en:00:57:23.606
01:00:01.597 : en:01:00:01.597
01:04:45.881 : en:01:04:45.881
01:09:11.814 : en:01:09:11.814
01:14:45.981 : en:01:14:45.981
01:17:50.499 : en:01:17:50.499
01:21:50.905 : en:01:21:50.905
01:25:22.117 : en:01:25:22.117
01:29:53.554 : en:01:29:53.554
01:33:00.241 : en:01:33:00.241
01:35:47.408 : en:01:35:47.408
01:38:14.388 : en:01:38:14.388
01:41:19.073 : en:01:41:19.073
Скриншоты:
       -Раздача: 24/7-Не забываем говорить спасибо, Вам не сложно, а мне приятно)))
Прошу с раздачи не уходить! Скачал сам, дай и другим скачать!!!
Приятного просмотра)))
Вне форума [Профиль] [ЛС]
Похожие темы
Форум Тема Автор Торрент Отв. Посл. сообщение
./templates/default/images/folder_dl.gif Подшивки журналов и газет Подборка журналов | Приключения, тайны, чудеса [2005...2012] [PDF, DjVu] sashau
1 | 0

0 | 1934

5

2013-01-10 15:20
sashau Последнее
./templates/default/images/folder_dl.gif T Иностранные мультфильмы Гаргульи: Герои проснулись / Gargoyles: The Movie - The Heroes Awaken (Казуо Терада / Kazuo Terada, Сабуро Хашимото / Saburo Hashimoto, Такамитсу Кавамура / Takamitsu Kawamura) [1994, Фантастика, фэнтези, приключения, VHSRip] AVO (Иванов) Omen
0 | 1

0 | 600

0

2013-08-07 09:01
Omen Последнее
./templates/default/images/folder_dl.gif Разножанровые коллекции книг и библиотеки Книжная серия | Мир приключений [39 книг] (1986-1993) [FB2, DJVU] UndegraundMen
1 | 0

0 | 1018

25

2013-10-27 18:01
UndegraundMen Последнее
./templates/default/images/folder_dl.gif Фильмы 2001-2010 Орудия смерти: Город костей / The Mortal Instruments: City of Bones (Харольд Цварт) (Боевик, Детектив, Приключения 2013) HDRip Omen
1 | 0

0 | 887

32

2013-11-19 14:19
Omen Последнее
./templates/default/images/folder_dl.gif Подшивки журналов и газет Подшивка журналов | Чудеса и приключения [1992 ... 2014] [DJVU; PDF; CHM]. Обновлено 25.05.2014 Omen
1 | 0

0 | 1076

7

2014-05-26 09:08
Omen Последнее
./templates/default/images/folder_dl.gif Иностранные мультфильмы ВАЛЛ·И / WALL·E (Эндрю Стэнтон / Andrew Stanton) [2008 г., США, мультфильм, фантастика, мелодрама, приключения, семейный, BDRip 1080p] Dub + MVO + AVO (Сербин) + Ukr + Original Eng + Sub (Rus, Ukr, Eng) [Локализованный видеоряд] Omen
2 | 0

0 | 456

6

2014-09-04 20:39
Omen Последнее
./templates/default/images/folder_dl.gif Подшивки журналов и газет Подборка газет | Приключения, тайны, чудеса (2001-2014) [PDF, DJVU] Omen
1 | 0

0 | 813

6

2014-11-16 23:11
Omen Последнее
./templates/default/images/folder_dl.gif Фильмы 2011-2016 Исход: Цари и боги / Exodus: Gods and Kings (Ридли Скотт) [2014 г., боевик, драма, приключения, WEBDL 720p LQ] DUB |iTunes Theseus
1 | 0

0 | 673

61

2015-03-04 02:19
Theseus Последнее
./templates/default/images/folder_dl.gif Фильмы 2011-2016 Однажды (Ренат Давлетьяров) [2015 г., комедия, приключения, WEB-DLRip] (iTunes) Clavik
1 | 0

1 | 1054

70

2016-01-02 08:24
Dracula Последнее
./templates/default/images/folder_dl.gif Фильмы 2011-2016 Безумный Макс: Дорога ярости / Mad Max: Fury Road (Джордж Миллер) [2015 г., фантастика, боевик, триллер, приключения, WEBDL 1080p LQ] AVO Theseus
1 | 0

0 | 1140

79

2015-06-24 16:16
Theseus Последнее
Показать сообщения:    
Ответить на тему

Текущее время: Сегодня 17:30

Часовой пояс: GMT + 3



Вы не можете начинать темы
Вы не можете отвечать на сообщения
Вы не можете редактировать свои сообщения
Вы не можете удалять свои сообщения
Вы не можете голосовать в опросах
Вы не можете прикреплять файлы к сообщениям
Вы не можете скачивать файлы