Сегодня идет свободное скачивание без начисления Download

Ты теперь большой мальчик / You\'re a Big Boy Now (1966) DVDRip [H.264]

Ответить на тему
 
Автор
Сообщение

UndegraundMen ®

Стаж: 3 года 9 месяцев

Сообщений: 28329

Торрент-статистика

Пост 07-Апр-2013 00:06

[Цитировать]

Ты теперь большой мальчик / You're a Big Boy Now (1966) DVDRip [H.264] -«Wow - It's the Wildest!»- Русское название: Ты теперь большой мальчик
Оригинальное название: You're a Big Boy Now
Год выпуска: 1966
Жанр: Драма, Мелодрама, Комедия
Страна: США
Производство: Seven Arts Productions
Описание фильма:
19-летний Бернард живёт с родителями, которые буквально не дают ему свободно вздохнуть. Он работает в библиотеке, где ответственный пост занимает его отец. Эми, коллега Бернарда, постоянно оказывает ему знаки внимания, но он не знает, как на это реагировать. Всё начинает меняться в тот день, когда отец волевым решением отправляет Бернарда в самостоятельное «плавание» — отселяет сына в съёмную комнату и предоставляет ему относительную свободу. Но выясняется, что родители Бернарда ещё менее готовы к независимой жизни сына, чем он сам…
Режиссер: Френсис Форд Коппола
Сценарий: Френсис Форд Коппола, Дэвид Бенедиктус
Продюсер: Фил Фельдман
Актеры: Элизабет Хартман, Джеральдин Пейдж, Питер Кастнер, Рип Торн, Майкл Данн, Тони Билл, Джули Харрис, Карен Блэк, Дольф Свит, Майкл О’Салливан
Продолжительность: 01:37:33
Перевод: Многоголосый закадровый (ГТРК Культура)
Субтитры: Отсутствуют

Дата мировой премьеры: 9 декабря 1966
Видеокодек: MPEG-4 AVC/H.264
Битрейт видео: ~2100 Кбит/сек
Размер кадра: 720x400
Качество видео: DVDRip
Аудиокодек: AC3 2.0
Битрейт аудио: 192 kbps

Награды:

Британская академия, 1968 год
Номинации (1):
Самый многообещающий новичок (Питер Кастнер)
Оскар, 1967 год
Номинации (1):
Лучшая женская роль второго плана (Джеральдин Пейдж)
Золотой глобус, 1967 год
Номинации (3):
Лучшая женская роль (комедия или мюзикл) (Элизабет Хартман)
Лучший фильм (комедия или мюзикл)
Лучшая женская роль второго плана (Джеральдин Пейдж)
Каннский кинофестиваль, 1967 год
Номинации (1):
Золотая пальмовая ветвь

MediaInfo:

General
Unique ID : 240082905709868842010471920513224843386 (0xB49E492538D81823B87CA0BC4924A07A)
Complete name : H:\Downloads\Ты теперь Большой Мальчик.mkv
Format : Matroska
Format version : Version 4 / Version 2
File size : 1.56 GiB
Duration : 1h 37mn
Overall bit rate : 2 296 Kbps
Encoded date : UTC 2013-03-30 11:01:50
Writing application : mkvmerge v6.0.0 ('Coming Up For Air') built on Jan 20 2013 09:52:00
Writing library : libebml v1.3.0 + libmatroska v1.4.0
Video
ID : 1
Format : AVC
Format/Info : Advanced Video Codec
Format profile : [url=mailto:[email protected]][email protected][/url]
Format settings, CABAC : Yes
Format settings, ReFrames : 8 frames
Codec ID : V_MPEG4/ISO/AVC
Duration : 1h 37mn
Bit rate : 2 100 Kbps
Width : 720 pixels
Height : 400 pixels
Display aspect ratio : 16:9
Frame rate mode : Constant
Frame rate : 23.976 fps
Color space : YUV
Chroma subsampling : 4:2:0
Bit depth : 8 bits
Scan type : Progressive
Bits/(Pixel*Frame) : 0.304
Stream size : 1.40 GiB (90%)
Title : You're a Big Boy Now
Writing library : x264 core 129 r2230 1cffe9f
Encoding settings : cabac=1 / ref=8 / deblock=1:0:0 / analyse=0x3:0x113 / me=umh / subme=9 / psy=1 / psy_rd=1.00:0.00 / mixed_ref=1 / me_range=32 / chroma_me=1 / trellis=1 / 8x8dct=1 / cqm=0 / deadzone=21,11 / fast_pskip=1 / chroma_qp_offset=-2 / threads=6 / lookahead_threads=1 / sliced_threads=0 / nr=0 / decimate=0 / interlaced=0 / bluray_compat=0 / constrained_intra=0 / bframes=3 / b_pyramid=2 / b_adapt=2 / b_bias=0 / direct=3 / weightb=1 / open_gop=0 / weightp=2 / keyint=240 / keyint_min=23 / scenecut=40 / intra_refresh=0 / rc_lookahead=40 / rc=2pass / mbtree=1 / bitrate=2100 / ratetol=25.0 / qcomp=0.60 / qpmin=10 / qpmax=51 / qpstep=4 / cplxblur=20.0 / qblur=0.5 / ip_ratio=1.40 / aq=1:1.00
Language : English
Default : Yes
Forced : No
Audio
ID : 2
Format : AC-3
Format/Info : Audio Coding 3
Mode extension : CM (complete main)
Format settings, Endianness : Big
Codec ID : A_AC3
Duration : 1h 37mn
Bit rate mode : Constant
Bit rate : 192 Kbps
Channel(s) : 2 channels
Channel positions : Front: L R
Sampling rate : 48.0 KHz
Bit depth : 16 bits
Compression mode : Lossy
Stream size : 134 MiB (8%)
Title : Многоголосый закадровый (ГТРК Культура)
Language : Russian
Default : Yes
Forced : No
Скриншоты:                    Время раздачи: с 12:00 до 24:00 по Москве (выходные круглосуточно), до 10 скачавших
Вне форума [Профиль] [ЛС]
Показать сообщения:    
Ответить на тему

Текущее время: Сегодня 17:22

Часовой пояс: GMT + 3



Вы не можете начинать темы
Вы не можете отвечать на сообщения
Вы не можете редактировать свои сообщения
Вы не можете удалять свои сообщения
Вы не можете голосовать в опросах
Вы не можете прикреплять файлы к сообщениям
Вы не можете скачивать файлы