Сегодня идет свободное скачивание без начисления Download

Полицейский / Un flic (1972) DVDRip [H.264]

Ответить на тему
 
Автор
Сообщение

UndegraundMen ®

Стаж: 3 года 9 месяцев

Сообщений: 28329

Торрент-статистика

Пост 10-Апр-2013 00:08

[Цитировать]

Полицейский / Un flic (1972) DVDRip [H.264] - Русское название: Полицейский
Оригинальное название: Un flic
Год выпуска: 1972
Жанр: Боевик, Драма, Криминал
Страна: Франция, Италия
Производство: Euro International Film (EIA),Oceania Produzioni Internazionali Cinematografiche
Описание фильма:
В маленьком городке Сен-Жан-де-Мон происходит ограбление банка. Один из грабителей ранен. Выясняется, что деньги, похищенные налетчиками, предназначались для закупки крупной партии наркотиков. Таким образом, одни воры помешали другим провернуть выгодное дело.
Расследование поручено комиссару Кольману. Он уверен в себе. Он знает преступный мир Франции, как свои пять пальцев. Но выясняется, что он совсем не знает тех, кого считал друзьями.
Режиссер: Жан-Пьер Мельвиль
Сценарий: Жан-Пьер Мельвиль
Продюсер: Робер Дорфман
Актеры: Ален Делон, Катрин Денёв, Ричард Кренна, Риккардо Куччолла, Майкл Конрад, Поль Кроше, Симона Валер, Андре Пусс, Жан Десайи, Валери Вильсон
Продолжительность: 01:39:44
Перевод: Многоголосый закадровый
Субтитры: Отсутствуют

Дата мировой премьеры: 2 декабря 1972
Видеокодек: MPEG-4 AVC/H.264
Битрейт видео: ~2300 Кбит/сек
Размер кадра: 720x384
Качество видео: DVDRip
Аудиокодек: AC3 5.1
Битрейт аудио: 448 kbps

Реценция с кинопоиска от Жеманницы:

Из жизни полицейского
Грустная история, по большому счёту, одинокий волк Эдуар Кольман, комиссар полиции, расследующий дело об ограблении банка и торговле героином, сталкивается с проблемами личного характера. Оказывается, что его друзья и любимая женщина не так идеальны и девственно чисты перед законом, как ему бы того хотелось.
Делон всё так же немногословен и решителен, волк-одиночка, разочаровывающийся в жизни в связях, цитирующий гениального Видока, находя своё успокоение в циничных фразах.
История оригинально именно качеством подачи аферы и расследованием дела банды, ну и кроме того стиль: шляпы, плащи, нуар, как таковой, плюс обворожительная femme fatale Кэти в исполнении несравненной Катрин Денёв. Собственно, линия Денёв — Делон с самого начала обречена, и вот то, каким образом эти отношения медленно, но неуклонно сворачивают в тупик, репрезентуя как раз таки экзистенциальные сложности и повороты судьбы.

Из книги «3500 кинорецензий»

Замечательный французский режиссёр Жан-Пьер Мельвиль создал в своих лучших лентах своеобразный стиль философского, экзистенциального по своей сути детектива. Человек и судьба, рок, неведомая сила, воздействия которой невозможно избежать, — таков мотив двух его предыдущих картин «Самурай» и «Красный круг» с участием Алена Делона. В фильме «Полицейский», несколько уступающем по художественным достоинствам, этот же актёр играет комиссара полиции Эдуара Кольмана, который выслеживает группу гангстеров, грабящих банки и занимающихся торговлей наркотиками. Неотвратимость предопределённого исхода мучительно переживается героем после того, как он начинает понимать, что к преступной деятельности неким образом причастны его хороший приятель Симон и любимая женщина Кэти.
По сравнению с более жёсткими, суровыми, обжигающими холодом отчаяния предшествующими лентами французского мастера это произведение, созданное за год до его смерти, кажется чуть мелодраматичным. Отлично снят оператором Вальтером Воттицем залитый неоном Париж, который, несмотря на ночное время суток, не выглядит мрачным и тревожным, как этого следовало бы ожидать от типичного «чёрного фильма». Потому что Мельвилю, испытавшему немалое влияние film noir, американского жанра с французским названием, в финальной работе своего творчества захотелось представить более красочную и даже праздничную стилизацию полицейской истории. Не случайно и то, что в отличие от других, преимущественно мужских картин, в «Полицейском» должна была появиться роскошная женщина-звезда, в качестве которой как раз и присутствует на экране Катрин Денёв.

оценка: 8.0/10

MediaInfo:

General
Unique ID : 205541244220939051587110869224752743130 (0x9AA1CDBF9F43D3048D50D6810D1502DA)
Complete name : H:\Downloads\Полицейский.mkv
Format : Matroska
Format version : Version 4 / Version 2
File size : 1.89 GiB
Duration : 1h 39mn
Overall bit rate : 2 716 Kbps
Encoded date : UTC 2013-04-02 02:37:14
Writing application : mkvmerge v6.0.0 ('Coming Up For Air') built on Jan 20 2013 09:52:00
Writing library : libebml v1.3.0 + libmatroska v1.4.0
Video
ID : 1
Format : AVC
Format/Info : Advanced Video Codec
Format profile : [url=mailto:[email protected]][email protected][/url]
Format settings, CABAC : Yes
Format settings, ReFrames : 8 frames
Codec ID : V_MPEG4/ISO/AVC
Duration : 1h 39mn
Bit rate : 2 300 Kbps
Width : 720 pixels
Height : 384 pixels
Display aspect ratio : 1.85:1
Frame rate mode : Constant
Frame rate : 25.000 fps
Color space : YUV
Chroma subsampling : 4:2:0
Bit depth : 8 bits
Scan type : Progressive
Bits/(Pixel*Frame) : 0.333
Stream size : 1.54 GiB (82%)
Title : Un flic
Writing library : x264 core 129 r2230 1cffe9f
Encoding settings : cabac=1 / ref=8 / deblock=1:0:0 / analyse=0x3:0x113 / me=umh / subme=9 / psy=1 / psy_rd=1.00:0.00 / mixed_ref=1 / me_range=32 / chroma_me=1 / trellis=1 / 8x8dct=1 / cqm=0 / deadzone=21,11 / fast_pskip=1 / chroma_qp_offset=-2 / threads=6 / lookahead_threads=1 / sliced_threads=0 / nr=0 / decimate=0 / interlaced=0 / bluray_compat=0 / constrained_intra=0 / bframes=3 / b_pyramid=2 / b_adapt=2 / b_bias=0 / direct=3 / weightb=1 / open_gop=0 / weightp=2 / keyint=250 / keyint_min=25 / scenecut=40 / intra_refresh=0 / rc_lookahead=40 / rc=2pass / mbtree=1 / bitrate=2300 / ratetol=25.0 / qcomp=0.60 / qpmin=10 / qpmax=51 / qpstep=4 / cplxblur=20.0 / qblur=0.5 / ip_ratio=1.40 / aq=1:1.00
Language : French
Default : Yes
Forced : No
Audio
ID : 2
Format : AC-3
Format/Info : Audio Coding 3
Mode extension : CM (complete main)
Format settings, Endianness : Big
Codec ID : A_AC3
Duration : 1h 39mn
Bit rate mode : Constant
Bit rate : 448 Kbps
Channel(s) : 6 channels
Channel positions : Front: L C R, Side: L R, LFE
Sampling rate : 48.0 KHz
Bit depth : 16 bits
Compression mode : Lossy
Delay relative to video : 480ms
Stream size : 320 MiB (16%)
Title : Многоголосый закадровый
Language : Russian
Default : Yes
Forced : No
Скриншоты:                    
Вне форума [Профиль] [ЛС]
Показать сообщения:    
Ответить на тему

Текущее время: Сегодня 17:19

Часовой пояс: GMT + 3



Вы не можете начинать темы
Вы не можете отвечать на сообщения
Вы не можете редактировать свои сообщения
Вы не можете удалять свои сообщения
Вы не можете голосовать в опросах
Вы не можете прикреплять файлы к сообщениям
Вы не можете скачивать файлы