Сегодня идет свободное скачивание без начисления Download

Приносящий беду / La scoumoune (1972) DVDRip [H.264]

Ответить на тему
 
Автор
Сообщение

UndegraundMen ®

Стаж: 3 года 9 месяцев

Сообщений: 28329

Торрент-статистика

Пост 13-Апр-2013 00:02

[Цитировать]

Приносящий беду / La scoumoune (1972) DVDRip [H.264] - Русское название: Приносящий беду
Оригинальное название: La scoumoune
Год выпуска: 1972
Жанр: Драма, Криминал
Страна: Франция, Италия
Производство: Lira Films, Praesidens
Описание фильма:
1934 год, Марсель. В городе объявляется некто Роберто (Жан-Поль Бельмондо): удачливый гангстер, разящий врага наповал. Говорят, что он приносил беду любому, кто встанет у него не пути.
На этот раз Роберто намерен свести счеты с обидчиками своего друга Ксавье, сидящего за решеткой по ложному обвинению в убийстве. А для этого Роберто необходимо легализоваться в Марселе.
С помощью верной подруги Джорджии (Клаудиа Кардинале) «Приносящей беду» разрабатывает гениальный план, и становится крупным авторитетом: игорные дома, уличные девицы — все это теперь его бизнес. Но Ксавье по-прежнему за решеткой, а значит главный долг Роберто не оплачен и все только начинается.
Режиссер: Жозе Джованни
Сценарий: Жозе Джованни
Продюсер: Ральф Баум, Раймон Данон, Альфред Леви
Актеры: Жан-Поль Бельмондо, Клаудия Кардинале, Мишель Константен, Энрике Лусеро, Алан Мотте, Мишель Пейрелон, Филипп Бризар, Мари-Клод Местраль, Альдо Буфи Ланди, Лучано Катеначчи
Продолжительность: 01:41:19
Перевод: Многоголосый закадровый (НТВ)
Субтитры: Отсутствуют

Дата мировой премьеры: 12 декабря 1972
Видеокодек: MPEG-4 AVC/H.264
Битрейт видео: ~2299 Кбит/сек
Размер кадра: 720x400
Качество видео: DVDRip
Аудиокодек: AC3 2.0
Битрейт аудио: 192 kbps

Знаете ли вы, что...

Данный фильм является уже второй экранизацией романа Ж. Джованни «Отлученный» («Приносящий беду»). Первая была осуществлена в 1961 г. режиссером Жаном Беккером, и в ней тоже главную роль сыграл Бельмондо. Фильм называется «Некто Ла Рокка» (в России — «Месть Марсельца»). Видимо, автору романа экранизация не понравилась (хотя он является соавтором сценария), потому что он сделал свою киноверсию собственного произведения, выступив и как режиссер, и как автор сценария. Вторая экранизация более близка к роману, тогда как в «Некто Ла Рокка» действие перенесено в послевоенный период.

MediaInfo:

General
Unique ID : 190001732201310754855516756268605819940 (0x8EF100A753808DB7B50A703081F0CC24)
Complete name : H:\Downloads\Приносящий беду.mkv
Format : Matroska
Format version : Version 4 / Version 2
File size : 1.76 GiB
Duration : 1h 41mn
Overall bit rate : 2 492 Kbps
Encoded date : UTC 2013-04-12 00:53:19
Writing application : mkvmerge v6.0.0 ('Coming Up For Air') built on Jan 20 2013 09:52:00
Writing library : libebml v1.3.0 + libmatroska v1.4.0
Video
ID : 1
Format : AVC
Format/Info : Advanced Video Codec
Format profile : [url=mailto:[email protected]][email protected][/url]
Format settings, CABAC : Yes
Format settings, ReFrames : 8 frames
Codec ID : V_MPEG4/ISO/AVC
Duration : 1h 41mn
Bit rate : 2 299 Kbps
Width : 720 pixels
Height : 400 pixels
Display aspect ratio : 16:9
Frame rate mode : Constant
Frame rate : 25.000 fps
Color space : YUV
Chroma subsampling : 4:2:0
Bit depth : 8 bits
Scan type : Progressive
Bits/(Pixel*Frame) : 0.319
Stream size : 1.59 GiB (90%)
Title : La scoumoune
Writing library : x264 core 129 r2230 1cffe9f
Encoding settings : cabac=1 / ref=8 / deblock=1:-1:-1 / analyse=0x3:0x113 / me=umh / subme=9 / psy=1 / psy_rd=1.00:0.00 / mixed_ref=1 / me_range=16 / chroma_me=1 / trellis=2 / 8x8dct=1 / cqm=0 / deadzone=21,11 / fast_pskip=1 / chroma_qp_offset=-2 / threads=6 / lookahead_threads=1 / sliced_threads=0 / nr=0 / decimate=1 / interlaced=0 / bluray_compat=0 / constrained_intra=0 / bframes=3 / b_pyramid=2 / b_adapt=2 / b_bias=0 / direct=3 / weightb=1 / open_gop=0 / weightp=2 / keyint=250 / keyint_min=25 / scenecut=40 / intra_refresh=0 / rc_lookahead=40 / rc=2pass / mbtree=1 / bitrate=2299 / ratetol=1.0 / qcomp=0.60 / qpmin=10 / qpmax=51 / qpstep=4 / cplxblur=20.0 / qblur=0.5 / ip_ratio=1.40 / aq=1:1.00
Language : French
Default : Yes
Forced : No
Audio
ID : 2
Format : AC-3
Format/Info : Audio Coding 3
Mode extension : CM (complete main)
Format settings, Endianness : Big
Codec ID : A_AC3
Duration : 1h 41mn
Bit rate mode : Constant
Bit rate : 192 Kbps
Channel(s) : 2 channels
Channel positions : Front: L R
Sampling rate : 48.0 KHz
Bit depth : 16 bits
Compression mode : Lossy
Stream size : 139 MiB (8%)
Title : Многоголосый, закадровый - НТВ
Language : Russian
Default : Yes
Forced : No
Скриншоты:                    Время раздачи: с 12:00 до 24:00 по Москве (выходные круглосуточно), до 10 скачавших
Вне форума [Профиль] [ЛС]
Похожие темы
Форум Тема Автор Торрент Отв. Посл. сообщение
./templates/default/images/folder_dl.gif Видеотренинги Александр Евстегнеев | Контакты, которые приносят деньги. Секреты нетворкинга для киберсанта [2012] [unpacked] Omen
1 | 0

0 | 209

38

2013-01-10 10:24
Omen Последнее
Показать сообщения:    
Ответить на тему

Текущее время: Сегодня 15:10

Часовой пояс: GMT + 3



Вы не можете начинать темы
Вы не можете отвечать на сообщения
Вы не можете редактировать свои сообщения
Вы не можете удалять свои сообщения
Вы не можете голосовать в опросах
Вы не можете прикреплять файлы к сообщениям
Вы не можете скачивать файлы