Сегодня идет свободное скачивание без начисления Download

Харви / Harvey (1950) [1080p] BDRip

Ответить на тему
 
Автор
Сообщение

UndegraundMen ®

Стаж: 3 года 9 месяцев

Сообщений: 28329

Торрент-статистика

Пост 13-Апр-2013 00:02

[Цитировать]

Харви / Harvey (1950) BDRip-«The Wonderful Pulitzer Prize Play... becomes one of the Great Motion Pictures of our Time!»
Русское название: Харви
Оригинальное название: Harvey
Год выпуска: 1950
Жанр: Фэнтези, Драма, Комедия
Описание фильма:
Элвуд Пи Дауд человек, упивающийся собственным красноречием, добр настолько, что его доброта захлёстывает жизнь всех вокруг. Как-то вечером Элвуд возвращается домой и видит здоровенного кролика, метра два ростом, по имени Харви, подпирающего фонарный столб. Невидимый для всех остальных, Харви становится его другом и следует за ним повсюду, очень мешая семье Элвуда. Родные считают, что Элвуд окончательно свихнулся и его следует поместить в сумасшедший дом…
Режиссер: Генри Костер
Актеры: Джеймс Стюарт, Жозефин Халл, Пегги Дау, Чарльз Дрэйк, Сесил Келлауэй, Виктория Хорн, Джесси Уайт, Уильям Х. Линн, Уоллес Форд, Нана Брайант, Клем Беванс, Джино Коррадо, Джек Кертис, Ида Мур, Билли Уэйн
Продолжительность: 01:44:22
Перевод: Дублированный
Язык субтитров: Русские, английские
Вид субтитров: Вшитые

Дата мировой премьеры: 13 октября 1950
Видеокодек: MPEG-4 AVC/H.264
Битрейт видео: ~9392 kb/s
Размер кадра: 1456х1080
Качество видео: BDRip
Аудио 1: DTS Русский 2.0 / 48 kHz / 447 kbps / 24-bit Дублированный
Аудио 2: DTS Английский 2.0 / 48 kHz /1509 kbps / 24-bit Оригинал
Сэмпл: Ссылка

MediaInfo

Общее
Уникальный идентификатор : 252279002868097200076962360169606792465 (0xBDCB2B2921EBAAE88004196C7715C511)
Полное имя : C:\Xvid4PSP\Harvi.1950.x264.BDRip.1080p.mkv
Формат : Matroska
Версия формата : Version 4 / Version 2
Размер файла : 8,42 Гбайт
Продолжительность : 1 ч. 44 м.
Общий поток : 11,5 Мбит/сек
Название фильма : Харви / Harvey / 1950 / BDRip -- STarankov
Дата кодирования : UTC 2013-04-10 19:22:24
Программа кодирования : mkvmerge v6.1.0 ('Old Devil') built on Mar 2 2013 14:32:37
Библиотека кодирования : libebml v1.3.0 + libmatroska v1.4.0
Видео
Идентификатор : 1
Формат : AVC
Формат/Информация : Advanced Video Codec
Профиль формата : [url=mailto:[email protected]][email protected][/url]
Параметр CABAC формата : Да
Параметр ReFrames формата : 4 кадра
Идентификатор кодека : V_MPEG4/ISO/AVC
Продолжительность : 1 ч. 44 м.
Битрейт : 9363 Кбит/сек
Ширина : 1456 пикселей
Высота : 1080 пикселей
Соотношение сторон : 4:3
Режим частоты кадров : Постоянный
Частота кадров : 23,976 кадра/сек
Цветовое пространство : YUV
Субдискретизация насыщенности : 4:2:0
Битовая глубина : 8 бит
Тип развёртки : Прогрессивная
Бит/(Пиксели*Кадры) : 0.248
Размер потока : 6,83 Гбайт (81%)
Библиотека кодирования : x264 core 130 r2273 b3065e6
Настройки программы : cabac=1 / ref=4 / deblock=1:-1:-1 / analyse=0x3:0x113 / me=umh / subme=9 / psy=1 / psy_rd=1.00:0.15 / mixed_ref=1 / me_range=24 / chroma_me=1 / trellis=2 / 8x8dct=1 / cqm=0 / deadzone=21,11 / fast_pskip=1 / chroma_qp_offset=-3 / threads=6 / lookahead_threads=1 / sliced_threads=0 / nr=0 / decimate=1 / interlaced=0 / bluray_compat=0 / constrained_intra=0 / bframes=8 / b_pyramid=2 / b_adapt=2 / b_bias=0 / direct=1 / weightb=0 / open_gop=0 / weightp=2 / keyint=230 / keyint_min=23 / scenecut=40 / intra_refresh=0 / rc=crf / mbtree=0 / crf=22.0 / qcomp=0.60 / qpmin=0 / qpmax=69 / qpstep=4 / ip_ratio=1.40 / pb_ratio=1.30 / aq=1:1.00
Язык : English
Default : Да
Forced : Нет
Аудио #1
Идентификатор : 2
Формат : DTS
Формат/Информация : Digital Theater Systems
Режим : 16
Параметр Endianness формата : Big
Идентификатор кодека : A_DTS
Продолжительность : 1 ч. 44 м.
Вид битрейта : Постоянный
Битрейт : 447 Кбит/сек
Каналы : 2 канала
Расположение каналов : Front: L R
Частота : 48,0 КГц
Битовая глубина : 24 бит
Метод сжатия : С потерями
Размер потока : 334 Мбайт (4%)
Заголовок : DUB
Язык : Russian
Default : Да
Forced : Нет
Аудио #2
Идентификатор : 5
Формат : DTS
Формат/Информация : Digital Theater Systems
Режим : 16
Параметр Endianness формата : Big
Идентификатор кодека : A_DTS
Продолжительность : 1 ч. 44 м.
Вид битрейта : Постоянный
Битрейт : 1509 Кбит/сек
Каналы : 2 канала
Расположение каналов : Front: L R
Частота : 48,0 КГц
Битовая глубина : 24 бит
Метод сжатия : С потерями
Размер потока : 1,10 Гбайт (13%)
Язык : English
Default : Нет
Forced : Нет
Текст #1
Идентификатор : 3
Формат : UTF-8
Идентификатор кодека : S_TEXT/UTF8
Идентификатор кодека/Информация : UTF-8 Plain Text
Заголовок : русский
Язык : Russian
Default : Нет
Forced : Нет
Текст #2
Идентификатор : 4
Формат : UTF-8
Идентификатор кодека : S_TEXT/UTF8
Идентификатор кодека/Информация : UTF-8 Plain Text
Заголовок : английский
Default : Нет
Forced : Нет
Скриншоты:
         
Время раздачи: 24/7
Вне форума [Профиль] [ЛС]
Показать сообщения:    
Ответить на тему

Текущее время: Сегодня 20:21

Часовой пояс: GMT + 3



Вы не можете начинать темы
Вы не можете отвечать на сообщения
Вы не можете редактировать свои сообщения
Вы не можете удалять свои сообщения
Вы не можете голосовать в опросах
Вы не можете прикреплять файлы к сообщениям
Вы не можете скачивать файлы