Сегодня идет свободное скачивание без начисления Download

Бонни и Клайд / Bonnie and Clyde (1967) BDRip

Ответить на тему
 
Автор
Сообщение

UndegraundMen ®

Стаж: 3 года 9 месяцев

Сообщений: 28329

Торрент-статистика

Пост 20-Апр-2013 00:03

[Цитировать]

Бонни и Клайд / Bonnie and Clyde (1967) BDRip-«Хроники короткой жизни самых печально известных преступников Америки.»- Русское название: Бонни и Клайд
Оригинальное название: Bonnie and Clyde
Год выпуска: 1967
Жанр: драма, криминал, биография
Описание фильма:
Молодые и отчаянные любовники Бонни и Клайд легко и изящно грабят банки в 30-е годы XX века. Но их романтизм и «робингудство» довольно быстро перерастают в лужи и реки крови, в хаос и грязь смерти, а судьба пророчит им неудачу…
Режиссер: Артур Пенн
Актеры: Уоррен Битти, Фэй Данауэй, Майкл Дж. Поллард, Джин Хэкмен, Эстелл Парсонс, Денвер Пайл, Даб Тейлор, Эванс Эванс, Джин Уайлдер, Марта Эдкок, Гарри Эпплинг, Оуэн Буш, Мэйбл Кэвилл, Патрик Крэншо, Фрэнсис Фишер, Сэди Френч, Гарри Гуджион, Клайд Хауди, Русс Маркер, Кен Майер, Кен Миллер, Энн Палмер, Стюарт Спэйтс, Джеймс Стайвер, Ада Во
Продолжительность: 01:50:45
Перевод: Многоголосый закадровый
Язык субтитров: Русский
Вид субтитров: Отдельным файлом

Дата мировой премьеры: 4 августа 1967
Видеокодек: Xvid
Битрейт видео: ~1676 kbps
Размер кадра: 720x400
Качество видео: BDRip
Аудио#1: 48 kHz, AC3 Dolby Digital 2 ch, 192.00 kbps / Профессиональный (многоголосый закадровый)
Аудио#2: 48 kHz, AC3 Dolby Digital 1 ch, 192.00 kbps / Оригинал (Английский) / внешняя
&

MI

Общее
Полное имя : E:\Фильмы М\Bonnie.and.Clyde.1967.BDRip\Bonnie and Clyde.1967.BDRip.avi
Формат : AVI
Формат/Информация : Audio Video Interleave
Размер файла : 1,45 Гбайт
Продолжительность : 1 ч. 50 м.
Общий поток : 1877 Кбит/сек
Название фильма : Bonnie and Clyde.1967.BDRip
Режиссёр : rip by maygli
Программа кодирования : VirtualDubModRus 1.5.10.2 (build 2542/release)
Правообладатель : www.starbit.org (RG Rulya74)
Видео
Идентификатор : 0
Формат : MPEG-4 Visual
Профиль формата : Advanced [email protected]
Параметр BVOP формата : 1
Параметр QPel формата : Нет
Параметр GMC формата : Без точки перехода
Параметр матрицы формата : Выборочная
Режим смешивания : Сжатый битовый поток
Идентификатор кодека : XVID
Идентификатор кодека/Подсказка : XviD
Продолжительность : 1 ч. 50 м.
Битрейт : 1676 Кбит/сек
Ширина : 720 пикселей
Высота : 400 пикселей
Соотношение сторон : 16:9
Частота кадров : 23,976 кадра/сек
Цветовое пространство : YUV
Субдискретизация насыщенности : 4:2:0
Битовая глубина : 8 бит
Тип развёртки : Прогрессивная
Метод сжатия : С потерями
Бит/(Пиксели*Кадры) : 0.243
Размер потока : 1,30 Гбайт (89%)
Библиотека кодирования : XviD 65
Аудио
Идентификатор : 1
Формат : AC-3
Формат/Информация : Audio Coding 3
Расширение режима : CM (complete main)
Параметр Endianness формата : Big
Идентификатор кодека : 2000
Продолжительность : 1 ч. 50 м.
Вид битрейта : Постоянный
Битрейт : 192 Кбит/сек
Каналы : 2 канала
Расположение каналов : Front: L R
Частота : 48,0 КГц
Битовая глубина : 16 бит
Метод сжатия : С потерями
Размер потока : 152 Мбайт (10%)
Выравнивание : Разделение по промежуткам
Продолжительность промежутка : 42 мс. (1,00 видеокадр)
Время предзагрузки промежутка : 500 мс.
Заголовок : Профессиональный (многоголосый закадровый)
Скриншоты:
           
Время раздачи: С 10:00 до 22:30
Вне форума [Профиль] [ЛС]
Показать сообщения:    
Ответить на тему

Текущее время: Сегодня 20:24

Часовой пояс: GMT + 3



Вы не можете начинать темы
Вы не можете отвечать на сообщения
Вы не можете редактировать свои сообщения
Вы не можете удалять свои сообщения
Вы не можете голосовать в опросах
Вы не можете прикреплять файлы к сообщениям
Вы не можете скачивать файлы