Сегодня идет свободное скачивание без начисления Download

Марафонец / Marathon Man (1976) BDRip

Ответить на тему
 
Автор
Сообщение

UndegraundMen ®

Стаж: 3 года 9 месяцев

Сообщений: 28329

Торрент-статистика

Пост 21-Апр-2013 00:01

[Цитировать]

Марафонец / Marathon Man (1976) BDRip- Русское название: Марафонец
Оригинальное название: Marathon Man
Год выпуска: 1976
Производство: США, Paramount Pictures
Жанр: Драма, Триллер-Описание фильма:
Главный герой Томас Леви студент-историк захвачен учебой, он любит бегать по утрам и скучает по своему старшему брату, который живет далеко и в совсем другом мире… Он еще не подозревает во что окажется втянут. Сможет ли он выдержать схватку с преследующим его опасным нацистским преступником?-Режиссер: Джон Шлезингер
Актеры: Дастин Хоффман, Лоуренс Оливье, Рой Шайдер, Уильям Дивэйн, Марта Келлер, Фриц Уивер, Ричард Брайт, Марк Лоуренс (I), Аллен Джозеф, Тито Гойя, Бен Дова, Лу Гилберт, Жак Марен, Джеймс Уинг Ву, Николь Делорьер, Лайонел Пина, Джейм Тирелли, Вильфредо Хернандез, Гарри Гоз, Майкл Вейл, Фред Статмен, Ли Стил, Уильям Мартел, Гленн Робардс, Рик Кэрротт, Альма Белтран, Дэниэл Нуньес, Тони Пена, Чуи Франко, Билли Кирнс, Сэлли Уилсон-Продолжительность: 02:05:24
Перевод: Многоголосый закадровый / Одноголосый закадровый, авторский
Релиз группа: NovaLan- -Дата мировой премьеры: 6 октября 197
Дата выхода DVD релиза: 30 марта 2010, «Юниверсал Пикчерс Рус»-Видеокодек: Xvid
Битрейт видео: ~1809 Кбит/с
Размер кадра: 720x400
Качество видео: BDRip
Аудио#1: Русский: (AC3, 6 ch, 448 Кбит/с) - Профессиональный многоголосый
Аудио#2: Русский: (AC3, 2 ch, 224 Кбит/c) - Авторский одноголосый (Леонид Володарский)
Аудио#3: Английский: (AC3, 6 ch, 448 Кбит/c) - отдельно!

Рецензия, отзыв о фильме

Из книги «3500 кинорецензий» оценка: 6.5/10
Этот фильм об американском историке Томасе Левае, который оказался участником преследования бывшего нацистского преступника, доктора Кристиана Шелла, вполне добротен и умело сделан. И всё же он не соответствует таланту и возможностям ни постановщика Джона Шлезингера, ни актёров Дастина Хофмана и Лоренса Оливье. Для Шлезингера — это первая попытка работы в популярном зрительском жанре (и он, кстати, добился некоторого успеха в прокате). Режиссёрский профессионализм в использовании типичных приёмов создания тревоги и страха (особенно в сцене на какой-то водонасосной станции или в эпизоде пытки при посредстве бормашины) выделяет данную ленту из разряда похожих триллеров. Психологизм и внутренняя проработка ролей двух вступивших в смертельный поединок людей отличают игру главных исполнителей. Хофман в определённом смысле повторил свою блестящую работу в картине «Соломенные псы». А вот Оливье придал выдуманному злодею черты жизненности характера, косвенно напомнив о реальном лице — известном враче-убийце Йозефе Менгеле.
1989

MediaInfo

Общее
Полное имя : D:\Торрент раздача\Marafonec.1976.XviD.BDRip.NovaLan\Marafonec.1976.XviD.BDRip.NovaLan.avi
Формат : AVI
Формат/Информация : Audio Video Interleave
Профиль формата : OpenDML
Размер файла : 2,19 Гбайт
Продолжительность : 2 ч. 5 м.
Общий поток : 2499 Кбит/сек
Название фильма : Marafonec.1976.XviD.BDRip
Программа кодирования : VirtualDubMod 1.5.10.3 | www.virtualdub-fr.org || (build 2550/release)
Видео
Идентификатор : 0
Формат : MPEG-4 Visual
Профиль формата : Advanced [email protected]
Параметр BVOP формата : 2
Параметр QPel формата : Нет
Параметр GMC формата : Без точки перехода
Параметр матрицы формата : Default (MPEG)
Идентификатор кодека : XVID
Идентификатор кодека/Подсказка : XviD
Продолжительность : 2 ч. 5 м.
Битрейт : 1809 Кбит/сек
Ширина : 720 пикселей
Высота : 400 пикселей
Соотношение сторон : 16:9
Частота кадров : 23,976 кадра/сек
Цветовое пространство : YUV
Субдискретизация насыщенности : 4:2:0
Битовая глубина : 8 бит
Тип развёртки : Прогрессивная
Метод сжатия : С потерями
Бит/(Пиксели*Кадры) : 0.262
Размер потока : 1,58 Гбайт (72%)
Библиотека кодирования : XviD 1.2.1 (UTC 2008-12-04)
Аудио #1
Идентификатор : 1
Формат : AC-3
Формат/Информация : Audio Coding 3
Расширение режима : CM (complete main)
Параметр Endianness формата : Big
Идентификатор кодека : 2000
Продолжительность : 2 ч. 5 м.
Вид битрейта : Постоянный
Битрейт : 448 Кбит/сек
Каналы : 6 каналов
Расположение каналов : Front: L C R, Side: L R, LFE
Частота : 48,0 КГц
Битовая глубина : 16 бит
Метод сжатия : С потерями
Размер потока : 402 Мбайт (18%)
Выравнивание : Разделение по промежуткам
Продолжительность промежутка : 42 мс. (1,00 видеокадр)
Время предзагрузки промежутка : 500 мс.
Аудио #2
Идентификатор : 2
Формат : AC-3
Формат/Информация : Audio Coding 3
Расширение режима : CM (complete main)
Параметр Endianness формата : Big
Идентификатор кодека : 2000
Продолжительность : 2 ч. 5 м.
Вид битрейта : Постоянный
Битрейт : 224 Кбит/сек
Каналы : 2 канала
Расположение каналов : Front: L R
Частота : 48,0 КГц
Битовая глубина : 16 бит
Метод сжатия : С потерями
Размер потока : 201 Мбайт (9%)
Выравнивание : Разделение по промежуткам
Продолжительность промежутка : 42 мс. (1,00 видеокадр)
Время предзагрузки промежутка : 500 мс.
Общее
Полное имя : D:\Торрент раздача\Marafonec.1976.XviD.BDRip.NovaLan\Marafonec.1976.XviD.BDRip.NovaLan.ENG.ac3
Формат : AC-3
Формат/Информация : Audio Coding 3
Размер файла : 402 Мбайт
Продолжительность : 2 ч. 5 м.
Режим общего битрейта : Постоянный
Общий поток : 448 Кбит/сек
Аудио
Формат : AC-3
Формат/Информация : Audio Coding 3
Расширение режима : CM (complete main)
Параметр Endianness формата : Big
Продолжительность : 2 ч. 5 м.
Вид битрейта : Постоянный
Битрейт : 448 Кбит/сек
Каналы : 6 каналов
Расположение каналов : Front: L C R, Side: L R, LFE
Частота : 48,0 КГц
Битовая глубина : 16 бит
Метод сжатия : С потерями
Размер потока : 402 Мбайт (100%)
Скриншоты:
                   
Время раздачи: 24/7
Вне форума [Профиль] [ЛС]
Показать сообщения:    
Ответить на тему

Текущее время: Сегодня 13:14

Часовой пояс: GMT + 3



Вы не можете начинать темы
Вы не можете отвечать на сообщения
Вы не можете редактировать свои сообщения
Вы не можете удалять свои сообщения
Вы не можете голосовать в опросах
Вы не можете прикреплять файлы к сообщениям
Вы не можете скачивать файлы