Сегодня идет свободное скачивание без начисления Download

А теперь кое-что... / And Now for Something Completely Different (1971) BDRip

Ответить на тему
 
Автор
Сообщение

UndegraundMen ®

Стаж: 3 года 9 месяцев

Сообщений: 28329

Торрент-статистика

Пост 22-Апр-2013 00:00

[Цитировать]

А теперь кое-что... / And Now for Something Completely Different (1971) от R.G.Shadoof- Русское название: А теперь кое-что...
Оригинальное название: And Now for Something Completely Different
Год выпуска: 1971
Производство: США
Жанр: Комедия
Перевод: Многоголосый закадровый (DVD Магия)
Многоголосый закадровый (SomeWax)
Одногоголосый закадровый (В.Горчаков)

Субтитры: Отсутствуют-Релиз группы: R.G. Shadoof
Автор рипа : What You Gonna Do ?
-Режиссер: Йен МакНотон
Актеры: Грэм Чепмен, Джон Клиз, Терри Гиллиам, Эрик Айдл, Терри Джонс, Майкл Пэлин, Кэрол Кливлэнд, Конни Бут, Невилл Чемберлен, Уинстон Черчилль- -Описание фильма: Это первый полнометражный фильм «Монти Пайтон» - творческого содружества британских актеров, сценаристов, режиссеров и художников. В сущности, фильм представляет антологию скетчей, полных черного юмора, которые были впервые показаны в легендарной телевизионной серии «Летающий цирк» на английском телевидении.-Исходник: А теперь кое-что... / And Now for Something Completely Different (1971) 1080p BD-Remux
Продолжительность: 01:28:19
Качество видео: BDRip
Видеокодек: XviD
Битрейт видео: ~2153 kbps
Размер кадра: 704x400
Аудио #1: Русский: 48 kHz, AC3 Dolby Digital, 2/0 (L,R) Surround Encoded ch, ~192 kbps |Многоголосый закадровый, DVD Магия|
Аудио #2: Русский: 48 kHz, AC3 Dolby Digital, 2/0 (L,R) Surround Encoded ch, ~192 kbps |Многоголосый закадровый, SomeWax|
Аудио #3: Русский: 48 kHz, AC3 Dolby Digital, 2/0 (L,R) Surround Encoded ch, ~192 kbps |Одногоголосый закадровый, В.Горчаков|
-

MediaInfo

Код:
Формат                                   : AVI
Формат/Информация                        : Audio Video Interleave
Размер файла                             : 1,45 Гбайт
Продолжительность                        : 1 ч. 28 м.
Общий поток                              : 2354 Кбит/сек
Название фильма                          : And.Now.for.Something.Completely.Different.1971.Rus.Eng.BDRip.XviD.AC3~R.G.Shadoof
Режиссёр                                 : WYGD?
Программа кодирования                    : VirtualDubMod 1.5.10.2 (build 2540/release)
Правообладатель                          : R.G.Shadoof
Примечание                               : 21.04.2013
Видео
Идентификатор                            : 0
Формат                                   : MPEG-4 Visual
Профиль формата                          : Advanced [email protected]
Параметр BVOP формата                    : 1
Параметр QPel формата                    : Нет
Параметр GMC формата                     : Без точки перехода
Параметр матрицы формата                 : Выборочная
Идентификатор кодека                     : XVID
Идентификатор кодека/Подсказка           : XviD
Продолжительность                        : 1 ч. 28 м.
Битрейт                                  : 2153 Кбит/сек
Ширина                                   : 704 пикселя
Высота                                   : 400 пикселей
Соотношение сторон                       : 16:9
Частота кадров                           : 23,976 кадра/сек
Цветовое пространство                    : YUV
Субдискретизация насыщенности            : 4:2:0
Битовая глубина                          : 8 бит
Тип развёртки                            : Прогрессивная
Метод сжатия                             : С потерями
Бит/(Пиксели*Кадры)                      : 0.319
Размер потока                            : 1,33 Гбайт (91%)
Библиотека кодирования                   : XviD 64
Аудио
Идентификатор                            : 1
Формат                                   : AC-3
Формат/Информация                        : Audio Coding 3
Профиль формата                          : Dolby Digital
Расширение режима                        : CM (complete main)
Параметр Endianness формата              : Big
Идентификатор кодека                     : 2000
Продолжительность                        : 1 ч. 28 м.
Вид битрейта                             : Постоянный
Битрейт                                  : 192 Кбит/сек
Каналы                                   : 2 канала
Расположение каналов                     : Front: L R
Частота                                  : 48,0 КГц
Битовая глубина                          : 16 бит
Метод сжатия                             : С потерями
Размер потока                            : 121 Мбайт (8%)
Выравнивание                             : Разделение по промежуткам
Продолжительность промежутка             : 42  мс. (1,00 видеокадр)
Время предзагрузки промежутка            : 500  мс.
- - --
Вне форума [Профиль] [ЛС]
Показать сообщения:    
Ответить на тему

Текущее время: Сегодня 13:11

Часовой пояс: GMT + 3



Вы не можете начинать темы
Вы не можете отвечать на сообщения
Вы не можете редактировать свои сообщения
Вы не можете удалять свои сообщения
Вы не можете голосовать в опросах
Вы не можете прикреплять файлы к сообщениям
Вы не можете скачивать файлы