Сегодня идет свободное скачивание без начисления Download

Странная парочка / The Odd Couple (1967) DVDRip [H.264]

Ответить на тему
 
Автор
Сообщение

UndegraundMen ®

Стаж: 3 года 9 месяцев

Сообщений: 28329

Торрент-статистика

Пост 22-Апр-2013 00:00

[Цитировать]

Странная парочка / The Odd Couple (1967) DVDRip [H.264] -«Jack Lemmon and Walter Matthau are The Odd Couple...say no more.»- Русское название: Странная парочка
Оригинальное название: The Odd Couple
Год выпуска: 1967
Жанр: Комедия, Драма, Мелодрама
Страна: США
Производство: Paramount Pictures
Описание фильма:
Феликса Ангера выставила из дома жена. Бедняга думал покончить жизнь самоубийством, но пришел в дом холостяка Оскара Мэдисона, где по пятницам друзья всегда играли в покер. Опасаясь за друга, Оскар предложил Феликсу пожить у него, тот согласился.
Дальнейшие события наглядно показывают, почему жена выгнала мужа после 12 лет совместной жизни, имея двух детей. Феликс превратил холостяцкую квартиру Оскара в музей, постоянно наводя чистоту и не разрешая сорить и наводить беспорядок, стал семейным тираном. Такой занудный чистюля и сварливый брюзга, что и мужская дружба не выдержала.
Режиссер: Джин Сэкс
Сценарий: Нил Саймон
Продюсер: Ховард Коч
Актеры: Джек Леммон, Уолтер Мэттау, Джон Фидлер, Херб Эдельман, Дэвид Шайнер, Ларри Хайнс, Моника Эванс, Кэрол Шелли, Ирис Адриан, Мэтти Алу
Продолжительность: 01:41:04
Перевод: Многоголосый закадровый
Субтитры: Отсутствуют

Дата мировой премьеры: 2 мая 1968
Видеокодек: MPEG-4 AVC/H.264
Битрейт видео: ~2200 Кбит/сек
Размер кадра: 720x304
Качество видео: DVDRip
Аудиокодек: AC3 5.1
Битрейт аудио: 448 kbps

Реценция с кинопоиска от Kiri2l:

Умели раньше снимать комедии. Вроде ничего особенного, но смотрится фильм просто отлично. Сценарий не самый оригинальный: ну живут себе два парня в квартире, ссорятся, мирятся и т. д. Но благодаря великолепно прописанным и сыгранным персонажам, фильм становится просто незабываемым. Тут конечно главная заслуга Джек Леммона и Уолтера Мэттоу.
Оскар Мэдисон (Уолтер Мэттоу) — типичный холостяк. Живет сам, иногда играет с друзьями в карты, веселится, выпивает, не против провести вечер (и не только) с красивой девушкой. Отличный парень. Правда есть один недостаток — уж очень он неряшливый. И его этот факт как-то не напрягает, но вот его друга…
Феликс Ангер (Джек Леммон) — полная противопожность. Он поведен на чистоте, порядке и у него все расланировано. Но однажды его план был нарушен — жена не могла больше его терпеть и он уходит из дома. Оскар как настоящий друг предлагает ему пожить у него пока все не наладится. Это было его ошибкой.
Джек Леммон и Уолтер Маттоу — отличный дуэт. Смотря на них, проникаешься симпатией к их героям и вместе с ними радуешься и грустишь. Но больше конечно радуешься. Потому что «Странная парочка» — отличное средство для поднятия настроения.
Я посмотрел этот фильм не один раз и уверен, что посмотрю еще. Потому что это действительно хорошее кино, которое не устаревает. Думаю, что любителям комедий этот фильм должен понравиться.

Награды:

Оскар, 1969 год
Номинации (2):
Лучший адаптированный сценарий
Лучший монтаж
Золотой глобус, 1969 год
Номинации (3):
Лучшая мужская роль (комедия или мюзикл) (Уолтер Мэттау)
Лучшая мужская роль (комедия или мюзикл) (Джек Леммон)
Лучший фильм (комедия или мюзикл)

MediaInfo:

General
Unique ID : 247338441437110405822440799553270028118 (0xBA13A6ACEDB425EEBC2E11FFDA079756)
Complete name : H:\Downloads\Странная парочка.mkv
Format : Matroska
Format version : Version 4 / Version 2
File size : 1.87 GiB
Duration : 1h 41mn
Overall bit rate : 2 650 Kbps
Encoded date : UTC 2013-04-20 10:09:00
Writing application : mkvmerge v6.0.0 ('Coming Up For Air') built on Jan 20 2013 09:52:00
Writing library : libebml v1.3.0 + libmatroska v1.4.0
Video
ID : 1
Format : AVC
Format/Info : Advanced Video Codec
Format profile : [url=mailto:[email protected]][email protected][/url]
Format settings, CABAC : Yes
Format settings, ReFrames : 8 frames
Codec ID : V_MPEG4/ISO/AVC
Duration : 1h 41mn
Bit rate : 2 200 Kbps
Width : 720 pixels
Height : 304 pixels
Display aspect ratio : 2.35:1
Frame rate mode : Constant
Frame rate : 25.000 fps
Color space : YUV
Chroma subsampling : 4:2:0
Bit depth : 8 bits
Scan type : Progressive
Bits/(Pixel*Frame) : 0.402
Stream size : 1.52 GiB (81%)
Title : The Odd Couple
Writing library : x264 core 129 r2230 1cffe9f
Encoding settings : cabac=1 / ref=8 / deblock=1:-1:-1 / analyse=0x3:0x113 / me=umh / subme=9 / psy=1 / psy_rd=1.00:0.00 / mixed_ref=1 / me_range=32 / chroma_me=1 / trellis=2 / 8x8dct=1 / cqm=0 / deadzone=21,11 / fast_pskip=1 / chroma_qp_offset=-2 / threads=6 / lookahead_threads=1 / sliced_threads=0 / nr=0 / decimate=1 / interlaced=0 / bluray_compat=0 / constrained_intra=0 / bframes=3 / b_pyramid=2 / b_adapt=2 / b_bias=0 / direct=3 / weightb=1 / open_gop=0 / weightp=2 / keyint=250 / keyint_min=25 / scenecut=40 / intra_refresh=0 / rc_lookahead=40 / rc=2pass / mbtree=1 / bitrate=2200 / ratetol=1.0 / qcomp=0.60 / qpmin=10 / qpmax=51 / qpstep=4 / cplxblur=20.0 / qblur=0.5 / ip_ratio=1.40 / aq=1:1.00
Language : English
Default : Yes
Forced : No
Audio
ID : 2
Format : AC-3
Format/Info : Audio Coding 3
Mode extension : CM (complete main)
Format settings, Endianness : Big
Codec ID : A_AC3
Duration : 1h 41mn
Bit rate mode : Constant
Bit rate : 448 Kbps
Channel(s) : 6 channels
Channel positions : Front: L C R, Side: L R, LFE
Sampling rate : 48.0 KHz
Bit depth : 16 bits
Compression mode : Lossy
Stream size : 324 MiB (17%)
Title : Профессиональный (многоголосый, закадровый)
Language : Russian
Default : Yes
Forced : No
Скриншоты:                    Время раздачи: с 12:00 до 24:00 по Москве (выходные круглосуточно), до 10 скачавших
Вне форума [Профиль] [ЛС]
Похожие темы
Форум Тема Автор Торрент Отв. Посл. сообщение
./templates/default/images/folder_dl.gif Обучающее видео Специалист | М6421 Конфигурирование и устранение неполадок сетевой инфраструктуры Windows Server 2008 Varius
1 | 0

0 | 3177

69

2011-12-17 19:02
Varius Последнее
./templates/default/images/folder_dl.gif Обучающее видео Михаил Гурьянов | Специалист | М6425В Конфигурирование и устранение неполадок службы каталогов Windows Server 2008 Active Directory [2011] PCRec Varius
1 | 0

0 | 2617

62

2011-12-17 19:58
Varius Последнее
./templates/default/images/folder_dl.gif Обучающее видео Ягодкин Николай | Техника запоминания 100 иностранных слов в час [2012] PCRec UndegraundMen
2 | 0

10 | 6070

122

2015-10-20 15:48
Геннадич Последнее
./templates/default/images/folder_dl.gif Обучающее видео [Advanced Training] Курс Cisco TSHOOT 2.0 - Поиск и устранение неисправностей в сетях Cisco (Troubleshooting and Maintaining Cisco IP Networks) [2014, RUS] Omen
6 | 0

0 | 1490

197

2015-05-16 12:00
Omen Последнее
./templates/default/images/folder_dl.gif Разное Александра Струк | Самая нужная книга для самого нужного места. 288 страниц позитива! (2014) [PDF, FB2] [email protected]
1 | 0

0 | 602

5

2016-11-22 20:14
[email protected] Последнее
Показать сообщения:    
Ответить на тему

Текущее время: Сегодня 09:41

Часовой пояс: GMT + 3



Вы не можете начинать темы
Вы не можете отвечать на сообщения
Вы не можете редактировать свои сообщения
Вы не можете удалять свои сообщения
Вы не можете голосовать в опросах
Вы не можете прикреплять файлы к сообщениям
Вы не можете скачивать файлы