Сегодня идет свободное скачивание без начисления Download

Нибелунги: Зигфрид / Die Nibelungen, Teil 1 - Siegfried (1966) [H.264] VHSRip

Ответить на тему
 
Автор
Сообщение

UndegraundMen ®

Стаж: 3 года 9 месяцев

Сообщений: 28329

Торрент-статистика

Пост 22-Апр-2013 00:00

[Цитировать]

Нибелунги: Зигфрид / Die Nibelungen, Teil 1 - Siegfried (1966) [H.264] VHSRip- Русское название: Нибелунги: Зигфрид
Оригинальное название: Die Nibelungen, Teil 1 - Siegfried
Год выпуска: 1966
Производство: Германия (ФРГ), Югославия
Жанр: фэнтези, приключения, эпос
Перевод: Одноголосый закадровый, профессиональный
Режиссер: Харальд Райнль
Cценарий: Харальд Г. Петерссон, Харальд Райнль, Ладишлаш Фодор
Сродюсер: Артур Браунер, Готц Дитер Вульф
Оператор: Эрнст В. Калинке
Композитор: Рольф А. Вильгельм
Художник: Коста Кривокапич, Изабелла Шлихтинг, Вернер Шлихтинг, ...
Монтаж: Герман Галлер
Описание фильма:
Несметные сокровища загадочных Нибелунгов издревле привлекали доблестных рыцарей и отважных королей. И только неуязвимый Зигфрид — победитель дракона — сумел завладеть заветным кладом. Но эти несметные богатства не принесли счастья ни герою, ни его землям.
Лишь алчность породили они в сердцах властителей-соседей. И вот, предательски пораженный копьем в спину, он пал от руки завистника-короля. Но вдова Зигфрида — прекрасная Кримхильда — не пожелала оставить смерть возлюбленного неотомщенной.
Ее новый избранник, повелитель свирепых гуннов Аттила, готов уничтожить врагов своей несравненной и коварной супруги. Сколько доблестных витязей не вернется с этой страшной битвы!… И спустя еще многие века менестрели будут слагать песни о проклятии Нибелунгов, подвигах Зигфрида и мести Кримхильды!…


Продолжительность: 01:25:16
Качество видео: VHSRip
Видеокодек: MPEG-4
Битрейт видео: ~2999 kbps
Размер кадра: 720x576
Аудиокодек: MP3
Битрейт аудио: 128.00 kbps

MediaInfo

Общее
Полное имя : zigfrid.avi
Формат : AVI
Формат/Информация : Audio Video Interleave
Размер файла : 1,87 Гбайт
Продолжительность : 1 ч. 25 м.
Режим общего битрейта : Постоянный
Общий поток : 3140 Кбит/сек
Видео
Идентификатор : 0
Формат : AVC
Формат/Информация : Advanced Video Codec
Профиль формата : [url=mailto:[email protected]][email protected][/url]
Параметр CABAC формата : Да
Параметр ReFrames формата : 1 кадр
Параметр GOP формата : M=1, N=25
Идентификатор кодека : X264
Идентификатор кодека/Информация : XiWave GNU GPL x264 MPEG-4
Продолжительность : 1 ч. 25 м.
Вид битрейта : Постоянный
Битрейт : 3000 Кбит/сек
Ширина : 720 пикселей
Высота : 576 пикселей
Соотношение сторон : 16:9
Частота кадров : 25,000 кадров/сек
Стандарт вещания : PAL
Цветовое пространство : YUV
Субдискретизация насыщенности : 4:2:0
Битовая глубина : 8 бит
Тип развёртки : Прогрессивная
Бит/(Пиксели*Кадры) : 0.289
Размер потока : 1,79 Гбайт (96%)
Аудио
Идентификатор : 1
Формат : MPEG Audio
Версия формата : Version 1
Профиль формата : Layer 3
Идентификатор кодека : 55
Идентификатор кодека/Подсказка : MP3
Продолжительность : 1 ч. 25 м.
Вид битрейта : Постоянный
Битрейт : 128 Кбит/сек
Каналы : 2 канала
Частота : 44,1 КГц
Метод сжатия : С потерями
Размер потока : 78,1 Мбайт (4%)
Выравнивание : Разделение по промежуткам
Продолжительность промежутка : 26 мс. (0,65 видеокадр)
Библиотека кодирования : LAME3.98.2
Скриншоты:
           
Время раздачи: 10:00-23:00
Вне форума [Профиль] [ЛС]
Показать сообщения:    
Ответить на тему

Текущее время: Сегодня 22:20

Часовой пояс: GMT + 3



Вы не можете начинать темы
Вы не можете отвечать на сообщения
Вы не можете редактировать свои сообщения
Вы не можете удалять свои сообщения
Вы не можете голосовать в опросах
Вы не можете прикреплять файлы к сообщениям
Вы не можете скачивать файлы