Сегодня идет свободное скачивание без начисления Download

Как украсть миллион / How to Steal a Million (1966) DVDRip

Ответить на тему
 
Автор
Сообщение

UndegraundMen ®

Стаж: 3 года 9 месяцев

Сообщений: 28329

Торрент-статистика

Пост 23-Апр-2013 04:18

[Цитировать]

Как украсть миллион / How to Steal a Million (1966) DVDRip- Русское название: Как украсть миллион
Оригинальное название: How to Steal a Million
Год выпуска: 1966
Жанр: Комедия, Криминал
Страна: США.
Описание фильма:
Отец Николь, парижский антиквар Шарль Бонне купается в деньгах и славе. Музей выставляет принадлежащую ему статуэтку Венеры работы Челлини как главный экспонат открывающейся выставки. Венера бесценна, но музейные правила требуют застраховать ее, приглашены эксперты. А это почти катастрофа, ведь вся коллекция Бонне - подделки. В ту же ночь в дом Бонне забирается вор, он молод и красив, а потому Николь ловит его и... отпускает с одним условием: он поможет украсть Венеру из музея, экспертиза не состоится и честь семьи будет спасена...
Режиссер: Уильям Уайлер / William Wyler
Актеры: Одри Хепберн, Питер О'Тул, Илай Уоллак, Хью Гриффит, Чарльз Бойер, Фернан Гравей, Марсель Далио, Жак Марен, Мусташ, Роджер Тревилл, Эдвард Малин, Берт Бертрам
Роли дублировали: Надежда Румянцева, Феликс Яворский, Алексей Алексеев, Зиновий Гердт, Владимир Балашов
Продолжительность: 02:03:25
Перевод: Профессиональный (полное дублирование) (Советский дубляж) +
профессиональный многоголосый

Дата мировой премьеры: 13 июля 1966
Дата выхода DVD релиза: 12 марта 2009, «Двадцатый Век Фокс СНГ»
Видеокодек: Xvid
Битрейт видео: ~1 550 Kbps
Размер кадра: 720 х 304
Качество видео: DVDRip
Аудиокодек: AC3 2.0
Аудио 1: 48 kHz, AC3 Dolby Digital, 2/0 (L,R) ch, ~192 kbps (русский, профессиональный многоголосый)
Аудио 2: 48 kHz, AC3 Dolby Digital, 2/0 (L,R) ch, ~192 kbps (русский, советский дубляж)
Аудио 3: 48 kHz, AC3 Dolby Digital, 2/0 (L,R) ch, ~192 kbps (английский)
Сэмпл: Ссылка
Релиз группа:
Исходник [url=/forum/viewtopic.php?t=54945]Как украсть миллион / How to Steal a Million (1966) DVD9[/url]

Медиаинфо

Format : AVI
Format/Info : Audio Video Interleave
File size : 1.85 GiB
Duration : 2h 3mn
Overall bit rate : 2 145 Kbps
Director : CrimeanFox
Writing application : VirtualDubMod 1.5.10.2 (build 2540/release)
Writing library : VirtualDubMod build 2540/release
Copyright : RG.Vanila.films
Video
ID : 0
Format : MPEG-4 Visual
Format profile : Advanced [email protected]
Format settings, BVOP : 2
Format settings, QPel : No
Format settings, GMC : No warppoints
Format settings, Matrix : Default (MPEG)
Codec ID : XVID
Codec ID/Hint : XviD
Duration : 2h 3mn
Bit rate : 1 550 Kbps
Width : 720 pixels
Height : 304 pixels
Display aspect ratio : 2.35:1
Frame rate : 23.976 fps
Color space : YUV
Chroma subsampling : 4:2:0
Bit depth : 8 bits
Scan type : Progressive
Compression mode : Lossy
Bits/(Pixel*Frame) : 0.295
Stream size : 1.34 GiB (72%)
Writing library : XviD 65
Audio #1
ID : 1
Format : AC-3
Format/Info : Audio Coding 3
Mode extension : CM (complete main)
Format settings, Endianness : Big
Codec ID : 2000
Duration : 2h 3mn
Bit rate mode : Constant
Bit rate : 192 Kbps
Channel(s) : 2 channels
Channel positions : Front: L R
Sampling rate : 48.0 KHz
Bit depth : 16 bits
Compression mode : Lossy
Stream size : 170 MiB (9%)
Alignment : Split accross interleaves
Interleave, duration : 42 ms (1.00 video frame)
Interleave, preload duration : 500 ms
Audio #2
ID : 2
Format : AC-3
Format/Info : Audio Coding 3
Mode extension : CM (complete main)
Format settings, Endianness : Big
Codec ID : 2000
Duration : 2h 3mn
Bit rate mode : Constant
Bit rate : 192 Kbps
Channel(s) : 2 channels
Channel positions : Front: L R
Sampling rate : 48.0 KHz
Bit depth : 16 bits
Compression mode : Lossy
Stream size : 170 MiB (9%)
Alignment : Split accross interleaves
Interleave, duration : 42 ms (1.00 video frame)
Interleave, preload duration : 500 ms
Audio #3
ID : 3
Format : AC-3
Format/Info : Audio Coding 3
Mode extension : CM (complete main)
Format settings, Endianness : Big
Codec ID : 2000
Duration : 2h 3mn
Bit rate mode : Constant
Bit rate : 192 Kbps
Channel(s) : 2 channels
Channel positions : Front: L R
Sampling rate : 48.0 KHz
Bit depth : 16 bits
Compression mode : Lossy
Stream size : 170 MiB (9%)
Alignment : Split accross interleaves
Interleave, duration : 42 ms (1.00 video frame)
Interleave, preload duration : 500 ms
Скриншоты:
         
         
Как украсть миллион / How to Steal a Million (1966) на NNM-clubВремя раздачи: с 10:00 до 24:00
Вне форума [Профиль] [ЛС]
Показать сообщения:    
Ответить на тему

Текущее время: Сегодня 00:20

Часовой пояс: GMT + 3



Вы не можете начинать темы
Вы не можете отвечать на сообщения
Вы не можете редактировать свои сообщения
Вы не можете удалять свои сообщения
Вы не можете голосовать в опросах
Вы не можете прикреплять файлы к сообщениям
Вы не можете скачивать файлы