Сегодня идет свободное скачивание без начисления Download

Остров доктора Моро / The Island of Dr. Moreau (1977) DVDRip [H.264]

Ответить на тему
 
Автор
Сообщение

UndegraundMen ®

Стаж: 3 года 9 месяцев

Сообщений: 28329

Торрент-статистика

Пост 24-Апр-2013 00:03

[Цитировать]

Остров доктора Моро / The Island of Dr. Moreau (1977) DVDRip [H.264] -«The Doctor Is In-SANE!»- Русское название: Остров доктора Моро
Оригинальное название: The Island of Dr. Moreau
Год выпуска: 1977
Жанр: Фантастика, Ужасы, Фэнтези, Триллер, Приключения
Страна: США
Производство: American International Pictures (AIP), Cinema 77, Major Productions, Winters Hollywood Entertainment Holdings Corporation
Описание фильма:
На заброшенном острове безумный ученый доктор Моро с помощью специальной сыворотки превращает животных в подобие людей. Существует также и сыворотка, способная человека превратить в животное. По крайней мере, так полагает доктор Моро, и начинает испытывать ее действие на незваном госте: потерпевшем кораблекрушение моряке. И только бунт человеко-зверей поможет бедняге покинуть кошмарный остров.
Режиссер: Дон Тейлор
Сценарий: Эл Рамрас, Джон Херман Шейнер, Герберт Джордж Уэллс
Продюсер: Скип Стэлофф, Джон Темпл-Смит, Сэмюэл З. Аркофф
Актеры: Берт Ланкастер, Майкл Йорк, Найджел Девенпорт, Барбара Каррера, Ричард Бейсхарт, Ник Крэвет, Великий Джон Л., Боб Озман, Фумио Демура, Гари Бэксли
Продолжительность: 01:34:56
Перевод: Многоголосый закадровый
Субтитры: Отсутствуют

Дата мировой премьеры: 13 июля 1977
Дата выхода DVD релиза: 18 марта 2010, «Новый Диск»
Видеокодек: MPEG-4 AVC/H.264
Битрейт видео: ~2199 Кбит/сек
Размер кадра: 720x384
Качество видео: DVDRip
Аудиокодек: AC3 5.1
Битрейт аудио: 448 kbps

Реценция с кинопоиска от t.salvation:

Остров доктора Моро
Великолепный фильм. Завораживающее зрелище, история, держащая в напряжении все время, неожиданные ходы и развязки. Действие фильма ни на секунду не останавливается, преподнося все новые сюрпризы, как зрителю, так и инженеру-механику в исполнении Майкла Йорка. Литературный оригинал я не читал, но, судя по фильму, он столь же интересен. Отдельно хочется отметь грим — он просто невероятен. Ужасающие зверо-люди выглядят абсолютно реальными и живыми, словно они существовали в действительности — и никаких CG эффектов!
Майкл Йорк блистает в роли прямого и добросердечного инженера-механика, который проникается отвращением к дьявольским экспериментам над животными доктора Моро, задавая ему вопрос — а нужно ли человечеству изменять природу? Неужели оно имеет право покушаться на естество? На что блестящий ученый доктор Моро отвечает своим трудом — «безусловно». Человек — царь и покоритель природы, и для своих целей, будь то излечение от смертельных болезней или потребность в пище, он имеет право на любое «зверство» над подопытными животными. Из животных он пытается создать человека, преследуя цель разгадать все тайны генетики. Но его создания неизменно обращаются вспять в своем развитии, возвращаясь в звериное состояние. Моро дает им законы, за нарушение которых он карает их инстинктивным страхом перед болью, что они испытывают при перерождении. И когда инженер проникается состраданием к одному из таких исковерканных созданий природы, убивая его, вот тут-то у зверо-людей и возникает вопрос: значит, «хозяину» все дозволено, а нам нет?
В итоге, сам Моро преступает свои же законы, данные зверо-людям, и в этом «Рае» наступает тотальная анархия.
Все эти вопросы будут актуальны всегда, ведь человек всегда изменял природу «под себя», и каждый сам решает — хорошо это, или плохо. Лично я вижу в образе доктора много положительного, но его негласный девиз «цель оправдывает средства» порой приводит к плачевным действиям и результатам. Инженер, безусловно, имеет верную точку зрения, но в своем идеализме порой заходит слишком далеко и не понимает очевидных вещей.
Финал фильма просто роскошен — лично я не могу себе представить, сколько труда надо было вложить, чтобы так работать с животными. По сюжету огромные львы и тигры нападают на людей, и риска, полагаю, было очень много — причем я не заметил надписи в титрах «при съемках фильма ни одно животное не пострадало».
Итог — очень сильное кино, с захватывающим сюжетом, яркими живыми персонажами, всегда актуальными и интересными проблемами, поданное зрителю в фантастическом антураже, и с великолепными эффектами и работой гримеров и дрессировщиков.
10 из 10

Награды:

Сатурн, 1978 год
Номинации (5):
Лучший научно-фантастический фильм
Лучший режиссер (Дон Тейлор)
Лучший актер (Майкл Йорк)
Лучшие костюмы
Лучший грим

MediaInfo:

General
Unique ID : 218183774739542177109706159889292818809 (0xA424AAA0BAAA4DE69FC8A1EAD4217979)
Complete name : H:\Downloads\Остров доктора Моро.mkv
Format : Matroska
Format version : Version 4 / Version 2
File size : 1.76 GiB
Duration : 1h 34mn
Overall bit rate : 2 649 Kbps
Encoded date : UTC 2013-04-21 06:32:16
Writing application : mkvmerge v6.0.0 ('Coming Up For Air') built on Jan 20 2013 09:52:00
Writing library : libebml v1.3.0 + libmatroska v1.4.0
Video
ID : 1
Format : AVC
Format/Info : Advanced Video Codec
Format profile : [url=mailto:[email protected]][email protected][/url]
Format settings, CABAC : Yes
Format settings, ReFrames : 8 frames
Codec ID : V_MPEG4/ISO/AVC
Duration : 1h 34mn
Bit rate : 2 199 Kbps
Width : 720 pixels
Height : 384 pixels
Display aspect ratio : 1.85:1
Frame rate mode : Constant
Frame rate : 25.000 fps
Color space : YUV
Chroma subsampling : 4:2:0
Bit depth : 8 bits
Scan type : Progressive
Bits/(Pixel*Frame) : 0.318
Stream size : 1.42 GiB (81%)
Title : The Island of Dr. Moreau
Writing library : x264 core 129 r2230 1cffe9f
Encoding settings : cabac=1 / ref=8 / deblock=1:-1:-1 / analyse=0x3:0x113 / me=umh / subme=9 / psy=1 / psy_rd=1.00:0.00 / mixed_ref=1 / me_range=32 / chroma_me=1 / trellis=2 / 8x8dct=1 / cqm=0 / deadzone=21,11 / fast_pskip=1 / chroma_qp_offset=-2 / threads=6 / lookahead_threads=1 / sliced_threads=0 / nr=0 / decimate=1 / interlaced=0 / bluray_compat=0 / constrained_intra=0 / bframes=3 / b_pyramid=2 / b_adapt=2 / b_bias=0 / direct=3 / weightb=1 / open_gop=0 / weightp=2 / keyint=250 / keyint_min=25 / scenecut=40 / intra_refresh=0 / rc_lookahead=40 / rc=2pass / mbtree=1 / bitrate=2199 / ratetol=1.0 / qcomp=0.60 / qpmin=10 / qpmax=51 / qpstep=4 / cplxblur=20.0 / qblur=0.5 / ip_ratio=1.40 / aq=1:1.00
Language : English
Default : Yes
Forced : No
Audio
ID : 2
Format : AC-3
Format/Info : Audio Coding 3
Mode extension : CM (complete main)
Format settings, Endianness : Big
Codec ID : A_AC3
Duration : 1h 34mn
Bit rate mode : Constant
Bit rate : 448 Kbps
Channel(s) : 6 channels
Channel positions : Front: L C R, Side: L R, LFE
Sampling rate : 48.0 KHz
Bit depth : 16 bits
Compression mode : Lossy
Stream size : 304 MiB (17%)
Title : Многоголосый закадровый
Language : Russian
Default : Yes
Forced : No
Скриншоты:                    Время раздачи: с 12:00 до 01:00 по Москве (выходные круглосуточно), до 10 скачавших
Вне форума [Профиль] [ЛС]
Похожие темы
Форум Тема Автор Торрент Отв. Посл. сообщение
./templates/default/images/folder_dl.gif Обучающее видео Андрей Шевцов | Как построить бизнес с Китаем чужими руками (2014) [PCRec] Omen
2 | 0

0 | 841

21

2014-05-31 22:37
Omen Последнее
./templates/default/images/folder_dl.gif Строительство, Дизайн и Ремонт Книжная серия | Современный домострой [26 книг] (2009-2013) [PDF] Omen
1 | 0

0 | 910

32

2014-09-10 22:07
Omen Последнее
./templates/default/images/folder_dl.gif Компьютерная литература Подборка книг | Литература по сайтостроению [22 книги] (2008-2013) [FB2] Omen
1 | 0

0 | 854

18

2014-12-24 12:14
Omen Последнее
./templates/default/images/folder_dl.gif Обучающее видео Специалист | Построение системы безопасности персональных данных в организации (2015) PCRec Omen
1 | 0

0 | 230

13

2016-05-01 12:01
Omen Последнее
./templates/default/images/folder_dl.gif Фантастика, фэнтези, ужасы, мистика Владимир Третьяков | Возвращение на Обитаемый остров (2016) [FB2] [email protected]
1 | 0

0 | 194

5

2016-09-22 20:03
[email protected] Последнее
./templates/default/images/folder_dl.gif Видеотренинги IT DarkMaycal Sysadmins | Построение сетей CISCO с нуля. Часть 1 (2016) PCRec [H.264] Varius
1 | 0

0 | 90

8

2016-10-07 21:55
Varius Последнее
Показать сообщения:    
Ответить на тему

Текущее время: Сегодня 17:35

Часовой пояс: GMT + 3



Вы не можете начинать темы
Вы не можете отвечать на сообщения
Вы не можете редактировать свои сообщения
Вы не можете удалять свои сообщения
Вы не можете голосовать в опросах
Вы не можете прикреплять файлы к сообщениям
Вы не можете скачивать файлы