Сегодня идет свободное скачивание без начисления Download

Список Шиндлера / Schindler\'s List (1993) BDRip [H.264]

Ответить на тему
 
Автор
Сообщение

UndegraundMen ®

Стаж: 3 года 9 месяцев

Сообщений: 28329

Торрент-статистика

Пост 25-Апр-2013 00:02

[Цитировать]

Список Шиндлера / Schindler's List от R.G. Shadoof- Русское название: Список Шиндлера
Оригинальное название: Schindler's List
Год выпуска: 1993
Производство: США
Жанр: драма, военный, биография, история
Перевод: Дублированный + Многоголосый (закадровый) + Одноголосый (закадровый) + Оригинал
Субтитры: русские, английские-Релиз группы: R.G. Shadoof
Автор рипа : Deep Fusion
-Режиссер: Стивен Спилберг
Актеры: Лиам Нисон, Бен Кингсли, Рэйф Файнс, Кэролайн Гудолл, Эмбет Дэвидц, Джонатан Сагалл, Малгоша Гебель, Шмуэль Леви, Марк Иванир, Беатриче Макола- -Описание фильма: Лента рассказывает реальную историю загадочного Оскара Шиндлера, члена нацистской партии, преуспевающего фабриканта, спасшего во время Второй мировой войны более тысячи ста евреев. Это триумф одного человека, не похожего на других, и драма тех, кто, благодаря ему, выжил в ужасный период человеческой истории.-Исходник: Список Шиндлера / Schindler's List (1993) 1080p BD-Remux
Продолжительность: 03:15:12
Качество видео: BDRip
Видеокодек: MPEG 4 (H.264)/AVC
Битрейт видео: ~3862 kbps
Размер кадра: 1056x572
Аудио #1: Русский: 48 kHz, AC3, 3/2 (L,C,R,l,r) + LFE ch, ~448.00 kbps avg |Дубляж, Ист-Вест (Blu-ray CEE)|
Аудио #2: Русский: 48 kHz, AC3, 3/2 (L,C,R,l,r) + LFE ch, ~448.00 kbps avg |Многоголосый закадровый, Киномания|
Аудио #3: Русский: 48 kHz, AC3, 2/0 (L,R) ch, ~192.00 kbps avg |Одноголосый закадровый, В.Горчаков|
Аудио #4: Русский: 48 kHz, AC3, 2/0 (L,R) ch, ~192.00 kbps avg |Одноголосый закадровый, С.Визгунов|
Аудио #5: Русский: 48 kHz, AC3, 3/2 (L,C,R,l,r) + LFE ch, ~448.00 kbps avg |Одноголосый закадровый, Ю.Сербин (перевод 2012 года)|
Аудио #6: Русский: 48 kHz, AC3, 3/2 (L,C,R,l,r) + LFE ch, ~448.00 kbps avg |Одноголосый закадровый, Ю.Сербин (перевод 1995 года)|
Аудио #7: Русский: 48 kHz, AC3, 3/2 (L,C,R,l,r) + LFE ch, ~448.00 kbps avg |Одноголосый закадровый, Ю.Живов|
Аудио #8: Английский: 48 kHz, AC3, 3/2 (L,C,R,l,r) + LFE ch, ~448.00 kbps avg |Оригинальная звуковая дорожка|
Аудио #9: Украинский: 48 kHz, AC3, 2/0 (L,R) ch, ~192.00 kbps avg |Многоголосый закадровый, 1+1|
-

Log

Код:
---[NoImage] x264 [info]: frame I:1666  Avg QP:18.10  size: 76149
---[NoImage] x264 [info]: frame P:60661 Avg QP:19.72  size: 34450
---[NoImage] x264 [info]: frame B:218497 Avg QP:22.31  size: 15739
---[NoImage] x264 [info]: consecutive B-frames:  1.6%  2.2%  8.5% 23.5% 18.3% 34.3%  5.7%  1.9%  1.3%  2.2%  0.6%
---[NoImage] x264 [info]: mb I  I16..4:  5.5% 73.9% 20.6%
---[NoImage] x264 [info]: mb P  I16..4:  0.5% 15.0%  1.8%  P16..4: 31.0% 35.4% 12.0%  0.0%  0.0%    skip: 4.4%
---[NoImage] x264 [info]: mb B  I16..4:  0.1%  3.7%  0.2%  B16..8: 36.7% 19.1%  4.1%  direct: 6.5%  skip:29.7%  L0:42.9% L1:45.6% BI:11.5%
---[NoImage] x264 [info]: 8x8 transform intra:88.3% inter:61.8%
---[NoImage] x264 [info]: coded y,uvDC,uvAC intra: 94.0% 7.3% 4.8% inter: 30.7% 1.8% 0.5%
---[NoImage] x264 [info]: i16 v,h,dc,p: 49% 11%  7% 33%
---[NoImage] x264 [info]: i8 v,h,dc,ddl,ddr,vr,hd,vl,hu:  8%  7% 12% 10% 14% 13% 13% 12% 13%
---[NoImage] x264 [info]: i4 v,h,dc,ddl,ddr,vr,hd,vl,hu: 11%  6%  4%  9% 16% 15% 14% 12% 13%
---[NoImage] x264 [info]: i8c dc,h,v,p: 54% 44%  1%  0%
---[NoImage] x264 [info]: Weighted P-Frames: Y:3.1% UV:0.2%
---[NoImage] x264 [info]: ref P L0: 45.0% 11.0% 17.2%  5.8%  5.2%  3.7%  3.6%  1.8%  1.9%  1.5%  1.6%  1.5%  0.2%  0.0%
---[NoImage] x264 [info]: ref B L0: 73.9% 10.9%  5.2%  2.7%  1.9%  1.7%  1.3%  0.9%  0.7%  0.5%  0.2%
---[NoImage] x264 [info]: ref B L1: 93.2%  6.8%
---[NoImage] x264 [info]: kb/s:3862.81

MediaInfo

Код:
Формат                                   : Matroska
Версия формата                           : Version 4 / Version 2
Размер файла                             : 9,72 Гбайт
Продолжительность                        : 3 ч. 15 м.
Общий поток                              : 7131 Кбит/сек
Название фильма                          : Список Шиндлера / Schindler's List (1993)
Дата кодирования                         : UTC 2010-02-22 21:41:31
Программа кодирования                    : mkvmerge v5.9.0 ('On The Loose') built on Dec  9 2012 15:37:01
Библиотека кодирования                   : libebml v1.3.0 + libmatroska v1.4.0
Видео
Идентификатор                            : 1
Формат                                   : AVC
Формат/Информация                        : Advanced Video Codec
Профиль формата                          : [url=mailto:[email protected]][email protected][/url]
Параметр CABAC формата                   : Да
Параметр ReFrames формата                : 12 кадров
Идентификатор кодека                     : V_MPEG4/ISO/AVC
Продолжительность                        : 3 ч. 15 м.
Битрейт                                  : 3725 Кбит/сек
Ширина                                   : 1056 пикселей
Высота                                   : 572 пикселя
Соотношение сторон                       : 1,85:1
Частота кадров                           : 23,976 кадра/сек
Цветовое пространство                    : YUV
Субдискретизация насыщенности            : 4:2:0
Битовая глубина                          : 8 бит
Тип развёртки                            : Прогрессивная
Бит/(Пиксели*Кадры)                      : 0.257
Размер потока                            : 5,08 Гбайт (52%)
Заголовок                                : Список Шиндлера / Schindler's List (1993) BDRip-AVC by Deep Fusion | R.G. Shadoof | /*spam*/ |
Библиотека кодирования                   : x264 core 129 r2245 bc13772
Настройки программы                      : cabac=1 / ref=12 / deblock=1:-1:-1 / analyse=0x3:0x113 / me=tesa / subme=11 / psy=1 / psy_rd=1.10:0.02 / mixed_ref=1 / me_range=24 / chroma_me=1 / trellis=2 / 8x8dct=1 / cqm=0 / deadzone=21,11 / fast_pskip=0 / chroma_qp_offset=-5 / threads=6 / lookahead_threads=1 / sliced_threads=0 / nr=0 / decimate=1 / interlaced=0 / bluray_compat=0 / constrained_intra=0 / bframes=10 / b_pyramid=2 / b_adapt=2 / b_bias=0 / direct=1 / weightb=1 / open_gop=0 / weightp=2 / keyint=230 / keyint_min=23 / scenecut=40 / intra_refresh=0 / rc_lookahead=60 / rc=crf / mbtree=0 / crf=18.3 / qcomp=0.60 / qpmin=10 / qpmax=69 / qpstep=4 / vbv_maxrate=62500 / vbv_bufsize=50000 / crf_max=0.0 / nal_hrd=none / ip_ratio=1.40 / pb_ratio=1.30 / aq=1:1.00
Язык                                     : English
Default                                  : Да
Forced                                   : Нет
Аудио #1
Идентификатор                            : 2
Формат                                   : AC-3
Формат/Информация                        : Audio Coding 3
Расширение режима                        : CM (complete main)
Параметр Endianness формата              : Big
Идентификатор кодека                     : A_AC3
Продолжительность                        : 3 ч. 15 м.
Вид битрейта                             : Постоянный
Битрейт                                  : 448 Кбит/сек
Каналы                                   : 6 каналов
Расположение каналов                     : Front: L C R, Side: L R, LFE
Частота                                  : 48,0 КГц
Битовая глубина                          : 16 бит
Метод сжатия                             : С потерями
Размер потока                            : 626 Мбайт (6%)
Заголовок                                : Дубляж, Ист-Вест (Blu-ray CEE)
Язык                                     : Russian
Default                                  : Да
Forced                                   : Нет
Аудио #2
Идентификатор                            : 3
Формат                                   : AC-3
Формат/Информация                        : Audio Coding 3
Расширение режима                        : CM (complete main)
Параметр Endianness формата              : Big
Идентификатор кодека                     : A_AC3
Продолжительность                        : 3 ч. 15 м.
Вид битрейта                             : Постоянный
Битрейт                                  : 448 Кбит/сек
Каналы                                   : 6 каналов
Расположение каналов                     : Front: L C R, Side: L R, LFE
Частота                                  : 48,0 КГц
Битовая глубина                          : 16 бит
Метод сжатия                             : С потерями
Размер потока                            : 626 Мбайт (6%)
Заголовок                                : Многоголосый закадровый, Киномания
Язык                                     : Russian
Default                                  : Нет
Forced                                   : Нет
Аудио #3
Идентификатор                            : 4
Формат                                   : AC-3
Формат/Информация                        : Audio Coding 3
Расширение режима                        : CM (complete main)
Параметр Endianness формата              : Big
Идентификатор кодека                     : A_AC3
Продолжительность                        : 3 ч. 15 м.
Вид битрейта                             : Постоянный
Битрейт                                  : 192 Кбит/сек
Каналы                                   : 2 канала
Расположение каналов                     : Front: L R
Частота                                  : 48,0 КГц
Битовая глубина                          : 16 бит
Метод сжатия                             : С потерями
Размер потока                            : 268 Мбайт (3%)
Заголовок                                : Одноголосый закадровый, В.Горчаков
Язык                                     : Russian
Default                                  : Нет
Forced                                   : Нет
Аудио #4
Идентификатор                            : 5
Формат                                   : AC-3
Формат/Информация                        : Audio Coding 3
Расширение режима                        : CM (complete main)
Параметр Endianness формата              : Big
Идентификатор кодека                     : A_AC3
Продолжительность                        : 3 ч. 15 м.
Вид битрейта                             : Постоянный
Битрейт                                  : 192 Кбит/сек
Каналы                                   : 2 канала
Расположение каналов                     : Front: L R
Частота                                  : 48,0 КГц
Битовая глубина                          : 16 бит
Метод сжатия                             : С потерями
Размер потока                            : 268 Мбайт (3%)
Заголовок                                : Одноголосый закадровый, С.Визгунов
Язык                                     : Russian
Default                                  : Нет
Forced                                   : Нет
Аудио #5
Идентификатор                            : 6
Формат                                   : AC-3
Формат/Информация                        : Audio Coding 3
Расширение режима                        : CM (complete main)
Параметр Endianness формата              : Big
Идентификатор кодека                     : A_AC3
Продолжительность                        : 3 ч. 15 м.
Вид битрейта                             : Постоянный
Битрейт                                  : 448 Кбит/сек
Каналы                                   : 6 каналов
Расположение каналов                     : Front: L C R, Side: L R, LFE
Частота                                  : 48,0 КГц
Битовая глубина                          : 16 бит
Метод сжатия                             : С потерями
Размер потока                            : 626 Мбайт (6%)
Заголовок                                : Одноголосый закадровый, Ю.Сербин (перевод 2012 года)
Язык                                     : Russian
Default                                  : Нет
Forced                                   : Нет
Аудио #6
Идентификатор                            : 7
Формат                                   : AC-3
Формат/Информация                        : Audio Coding 3
Расширение режима                        : CM (complete main)
Параметр Endianness формата              : Big
Идентификатор кодека                     : A_AC3
Продолжительность                        : 3 ч. 15 м.
Вид битрейта                             : Постоянный
Битрейт                                  : 448 Кбит/сек
Каналы                                   : 6 каналов
Расположение каналов                     : Front: L C R, Side: L R, LFE
Частота                                  : 48,0 КГц
Битовая глубина                          : 16 бит
Метод сжатия                             : С потерями
Размер потока                            : 626 Мбайт (6%)
Заголовок                                : Одноголосый закадровый, Ю.Сербин (перевод 1995 года)
Язык                                     : Russian
Default                                  : Нет
Forced                                   : Нет
Аудио #7
Идентификатор                            : 8
Формат                                   : AC-3
Формат/Информация                        : Audio Coding 3
Расширение режима                        : CM (complete main)
Параметр Endianness формата              : Big
Идентификатор кодека                     : A_AC3
Продолжительность                        : 3 ч. 15 м.
Вид битрейта                             : Постоянный
Битрейт                                  : 448 Кбит/сек
Каналы                                   : 6 каналов
Расположение каналов                     : Front: L C R, Side: L R, LFE
Частота                                  : 48,0 КГц
Битовая глубина                          : 16 бит
Метод сжатия                             : С потерями
Размер потока                            : 626 Мбайт (6%)
Заголовок                                : Одноголосый закадровый, Ю.Живов
Язык                                     : Russian
Default                                  : Нет
Forced                                   : Нет
Аудио #8
Идентификатор                            : 9
Формат                                   : AC-3
Формат/Информация                        : Audio Coding 3
Расширение режима                        : CM (complete main)
Параметр Endianness формата              : Big
Идентификатор кодека                     : A_AC3
Продолжительность                        : 3 ч. 15 м.
Вид битрейта                             : Постоянный
Битрейт                                  : 448 Кбит/сек
Каналы                                   : 6 каналов
Расположение каналов                     : Front: L C R, Side: L R, LFE
Частота                                  : 48,0 КГц
Битовая глубина                          : 16 бит
Метод сжатия                             : С потерями
Размер потока                            : 626 Мбайт (6%)
Заголовок                                : Оригинальная звуковая дорожка
Язык                                     : English
Default                                  : Нет
Forced                                   : Нет
Аудио #9
Идентификатор                            : 10
Формат                                   : AC-3
Формат/Информация                        : Audio Coding 3
Расширение режима                        : CM (complete main)
Параметр Endianness формата              : Big
Идентификатор кодека                     : A_AC3
Продолжительность                        : 3 ч. 15 м.
Вид битрейта                             : Постоянный
Битрейт                                  : 192 Кбит/сек
Каналы                                   : 2 канала
Расположение каналов                     : Front: L R
Частота                                  : 48,0 КГц
Битовая глубина                          : 16 бит
Метод сжатия                             : С потерями
Размер потока                            : 268 Мбайт (3%)
Заголовок                                : Многоголосый закадровый, 1+1
Язык                                     : Ukrainian
Default                                  : Нет
Forced                                   : Нет
Текст #1
Идентификатор                            : 11
Формат                                   : UTF-8
Идентификатор кодека                     : S_TEXT/UTF8
Идентификатор кодека/Информация          : UTF-8 Plain Text
Заголовок                                : русские (форсированные)
Язык                                     : Russian
Default                                  : Да
Forced                                   : Нет
Текст #2
Идентификатор                            : 12
Формат                                   : UTF-8
Идентификатор кодека                     : S_TEXT/UTF8
Идентификатор кодека/Информация          : UTF-8 Plain Text
Заголовок                                : русские (полные)
Язык                                     : Russian
Default                                  : Нет
Forced                                   : Нет
Текст #3
Идентификатор                            : 13
Формат                                   : UTF-8
Идентификатор кодека                     : S_TEXT/UTF8
Идентификатор кодека/Информация          : UTF-8 Plain Text
Заголовок                                : английские (форсированные)
Язык                                     : English
Default                                  : Нет
Forced                                   : Нет
Текст #4
Идентификатор                            : 14
Формат                                   : UTF-8
Идентификатор кодека                     : S_TEXT/UTF8
Идентификатор кодека/Информация          : UTF-8 Plain Text
Заголовок                                : английские (полные)
Язык                                     : English
Default                                  : Нет
Forced                                   : Нет
Меню
00:00:00.000                             : en:00:00:00.000
00:03:23.161                             : en:00:03:23.161
00:10:12.153                             : en:00:10:12.153
00:14:51.307                             : en:00:14:51.307
00:17:28.714                             : en:00:17:28.714
00:21:42.384                             : en:00:21:42.384
00:23:48.009                             : en:00:23:48.009
00:30:37.669                             : en:00:30:37.669
00:34:23.728                             : en:00:34:23.728
00:41:43.751                             : en:00:41:43.751
00:44:16.737                             : en:00:44:16.737
00:50:55.761                             : en:00:50:55.761
00:55:09.431                             : en:00:55:09.431
00:56:44.859                             : en:00:56:44.859
01:13:44.753                             : en:01:13:44.753
01:17:05.704                             : en:01:17:05.704
01:26:02.115                             : en:01:26:02.115
01:29:26.319                             : en:01:29:26.319
01:32:01.182                             : en:01:32:01.182
01:38:36.869                             : en:01:38:36.869
01:43:19.776                             : en:01:43:19.776
01:49:36.611                             : en:01:49:36.611
01:55:45.980                             : en:01:55:45.980
01:58:42.824                             : en:01:58:42.824
02:02:59.789                             : en:02:02:59.789
02:06:49.310                             : en:02:06:49.310
02:10:11.637                             : en:02:10:11.637
02:13:44.725                             : en:02:13:44.725
02:18:21.376                             : en:02:18:21.376
02:26:46.506                             : en:02:26:46.506
02:34:15.621                             : en:02:34:15.621
02:38:48.018                             : en:02:38:48.018
02:41:15.415                             : en:02:41:15.415
02:46:21.763                             : en:02:46:21.763
02:48:12.332                             : en:02:48:12.332
02:50:23.171                             : en:02:50:23.171
02:55:28.392                             : en:02:55:28.392
03:01:51.358                             : en:03:01:51.358
03:05:06.720                             : en:03:05:06.720
03:08:51.278                             : en:03:08:51.278
- - --
Вне форума [Профиль] [ЛС]
Показать сообщения:    
Ответить на тему

Текущее время: Сегодня 15:07

Часовой пояс: GMT + 3



Вы не можете начинать темы
Вы не можете отвечать на сообщения
Вы не можете редактировать свои сообщения
Вы не можете удалять свои сообщения
Вы не можете голосовать в опросах
Вы не можете прикреплять файлы к сообщениям
Вы не можете скачивать файлы