Сегодня идет свободное скачивание без начисления Download

Отверженные / Les Miserables (1958) DVDRip [H.264]

Ответить на тему
 
Автор
Сообщение

UndegraundMen ®

Стаж: 3 года 9 месяцев

Сообщений: 28329

Торрент-статистика

Пост 27-Апр-2013 00:01

[Цитировать]

Отверженные / Les Miserables (1958) DVDRip- Русское название: Отверженные
Оригинальное название: Les Miserables
Год выпуска: 1958
Производсто: Франция, Германия (ФРГ), Италия / Киностудия Дефа, Serena
Жанр: Драма-Описание фильма:
Жан Вальжан (Жан Габен) отбыл на каторге 20 лет за кражу корки хлеба, а затем, после встречи с обезоруживающей добротой священника, у которого он крадет подсвечники, посвящает себя и всю свою жизнь творению добра. Его антагониста и главного врага, безжалостного инспектора Жавера, великолепно сыграл Бернар Блие. Мерзкого негодяя Тенардье отлично сыграл Бурвиль, ну а несчастную Козетту - Даниэль Делорм.
Монументальная экранизация популярнейшего романа Виктора Гюго с участием множества звезд, и, прежде всего, с блистательным исполнением Жаном Габеном роли Жана Вальжана, сделали этот фильм бестселлером для уже нескольких поколений зрителей.-Режиссер: Жан-Поль Ле Шануа
Актеры: Жан Габен, Бернар Блие, Рене Флер, Жюльенна Пароли, Фернан Леду, Эдмон Ардиссон, Кристиан Фуркад, Жан Озенн, Бернар Мюссон, Дэниэль Делорм, Бурвиль, Серж Реджани-Продолжительность: 03:08:44
Перевод: Многоголосый закадровый, профессиональный
Релиз группа: Хzona- -Видеокодек: MPEG-4 AVC/H.264
Битрейт видео: ~1750 Кб/сек
Размер кадра: 1024x432
Качество видео: DVDRip
Аудиокодек: AC3 2.0
Битрейт аудио: 192 Кб/сек

MediaInfo

Общее
Уникальный идентификатор : 202634376794266952655787816765240408774 (0x9871F61E8256C115A8B3A5EC8E1C7AC6)
Полное имя : D:\Торрент раздача\Les Miserables.1958.x264.DVDRip.(AVC).by.Тorrent-Хzona.mkv.mkv
Формат : Matroska
Версия формата : Version 2
Размер файла : 2,57 Гбайт
Продолжительность : 3 ч. 8 м.
Общий поток : 1944 Кбит/сек
Дата кодирования : UTC 2013-04-25 19:49:59
Программа кодирования : mkvmerge v5.8.0 ('No Sleep / Pillow') built on Sep 2 2012 15:37:04
Библиотека кодирования : libebml v1.2.3 + libmatroska v1.3.0
Видео
Идентификатор : 1
Формат : AVC
Формат/Информация : Advanced Video Codec
Профиль формата : [url=mailto:[email protected]][email protected][/url]
Параметр CABAC формата : Да
Параметр ReFrames формата : 4 кадра
Идентификатор кодека : V_MPEG4/ISO/AVC
Продолжительность : 3 ч. 8 м.
Битрейт : 1750 Кбит/сек
Ширина : 1024 пикселя
Высота : 432 пикселя
Соотношение сторон : 2,40:1
Режим частоты кадров : Постоянный
Частота кадров : 23,976 кадра/сек
Цветовое пространство : YUV
Субдискретизация насыщенности : 4:2:0
Битовая глубина : 8 бит
Тип развёртки : Прогрессивная
Бит/(Пиксели*Кадры) : 0.165
Размер потока : 2,26 Гбайт (88%)
Библиотека кодирования : x264 core 125 r2208 d9d2288
Настройки программы : cabac=1 / ref=3 / deblock=1:-1:-1 / analyse=0x3:0x111 / me=umh / subme=9 / psy=1 / psy_rd=1.00:0.15 / mixed_ref=1 / me_range=32 / chroma_me=1 / trellis=2 / 8x8dct=1 / cqm=0 / deadzone=21,11 / fast_pskip=0 / chroma_qp_offset=-3 / threads=3 / lookahead_threads=1 / sliced_threads=0 / nr=0 / decimate=1 / interlaced=0 / bluray_compat=0 / constrained_intra=0 / bframes=3 / b_pyramid=2 / b_adapt=0 / b_bias=0 / direct=1 / weightb=1 / open_gop=0 / weightp=2 / keyint=250 / keyint_min=23 / scenecut=40 / intra_refresh=0 / rc_lookahead=50 / rc=2pass / mbtree=1 / bitrate=1750 / ratetol=1.0 / qcomp=0.60 / qpmin=0 / qpmax=69 / qpstep=4 / cplxblur=20.0 / qblur=0.5 / ip_ratio=1.40 / aq=1:1.00
Default : Да
Forced : Нет
Аудио
Идентификатор : 2
Формат : AC-3
Формат/Информация : Audio Coding 3
Расширение режима : CM (complete main)
Параметр Endianness формата : Big
Идентификатор кодека : A_AC3
Продолжительность : 3 ч. 8 м.
Вид битрейта : Постоянный
Битрейт : 192 Кбит/сек
Каналы : 2 канала
Расположение каналов : Front: L R
Частота : 48,0 КГц
Битовая глубина : 16 бит
Метод сжатия : С потерями
Размер потока : 259 Мбайт (10%)
Default : Да
Forced : Нет
Скриншоты:
                   
Время раздачи: 24/7
Вне форума [Профиль] [ЛС]
Показать сообщения:    
Ответить на тему

Текущее время: Сегодня 20:24

Часовой пояс: GMT + 3



Вы не можете начинать темы
Вы не можете отвечать на сообщения
Вы не можете редактировать свои сообщения
Вы не можете удалять свои сообщения
Вы не можете голосовать в опросах
Вы не можете прикреплять файлы к сообщениям
Вы не можете скачивать файлы