Сегодня идет свободное скачивание без начисления Download

Путешествие к центру Земли / Journey to the Center of the Earth (1959) BDRemux [1080p]

Ответить на тему
 
Автор
Сообщение

UndegraundMen ®

Стаж: 3 года 9 месяцев

Сообщений: 28329

Торрент-статистика

Пост 27-Апр-2013 00:02

[Цитировать]

Путешествие к центру Земли / Journey to the Center of the Earth (1959) BDRemux [1080p]-«A fabulous world below the world»- Русское название: Путешествие к центру Земли
Оригинальное название: Journey to the Center of the Earth
Страна: США
Год выпуска: 1959
Жанр: фантастика, фэнтези, мелодрама, приключения, семейный
Режиссер: Генри Левин
Актеры: Пэт Бун, Джеймс Мейсон, Арлин Даль, Дайан Бэйкер, Тэйер Дэвид, Питер Ронсон, Боб Адлер, Алан Напье, Мэри Брэйди, Алан Кайу, Джон Эппер
Перевод: Многоголосый закадровый
Субтитры: отсутствуют-Описание фильма:
1880 год, Эдинбург, Англия. Профессор геологии Линденбрук обнаруживает в образцах лавы из окрестностей вулкана на севере Исландии остатки организмов, исчезнувших с лица Земли тысячи лет назад.
Вывод — под земной корой могла сохраниться доисторическая жизнь! Линденбрук готовит экспедицию к центру Земли, которая должна стартовать через жерло вулкана, а финансирование берёт на себя профессор Гётеборг.
Вскоре он трагически погибает, но его красавица-жена продолжает дело мужа и присоединяется к ученым…-

Рейтинг G - Нет возрастных ограничений
Дата мировой премьеры: 16 декабря 1959
Дата DVD премьеры: 19 февраля 2009, «Двадцатый Век Фокс СНГ»-Продолжительность: 02:09:28
Качество видео: BDRemux
Контейнер: MKV
Видеокодек: MPEG-4 AVC/H.264
Аудиокодек: AC-3, DTS-HD MA
Видео: 1920x1080, ~33917 kbps
Аудио #1: Русский, AC-3 2.0, ~192 kbps - профессиональный многоголосый закадровый
Аудио #2: English, DTS-HD MA 4.0, ~2522 kbps-

BV

MediaInfo

Формат : Matroska
Версия формата : Version 4 / Version 2
Размер файла : 33,1 Гбайт
Продолжительность : 2 ч. 9 м.
Режим общего битрейта : Переменный
Общий поток : 36,6 Мбит/сек
Название фильма : Journey to the Center of the Earth (1959) [1080p] BDRemux (by sergey2925 for /*spam*/)
Дата кодирования : UTC 2013-04-26 18:20:43
Программа кодирования : mkvmerge v6.1.0 ('Old Devil') built on Mar 2 2013 14:32:37
Библиотека кодирования : libebml v1.3.0 + libmatroska v1.4.0
Видео
Идентификатор : 1
Формат : AVC
Формат/Информация : Advanced Video Codec
Профиль формата : [url=mailto:[email protected]][email protected][/url]
Параметр CABAC формата : Да
Параметр ReFrames формата : 4 кадра
Идентификатор кодека : V_MPEG4/ISO/AVC
Продолжительность : 2 ч. 9 м.
Вид битрейта : Переменный
Битрейт : 34,1 Мбит/сек
Максимальный битрейт : 38,0 Мбит/сек
Ширина : 1920 пикселей
Высота : 1080 пикселей
Соотношение сторон : 16:9
Частота кадров : 23,976 кадра/сек
Цветовое пространство : YUV
Субдискретизация насыщенности : 4:2:0
Битовая глубина : 8 бит
Тип развёртки : Прогрессивная
Бит/(Пиксели*Кадры) : 0.686
Размер потока : 30,9 Гбайт (93%)
Заголовок : Journey to the Center of the Earth (1959) [1080p] BDRemux (by sergey2925 for /*spam*/)
Язык : English
Default : Да
Forced : Нет
Аудио #1
Идентификатор : 2
Формат : AC-3
Формат/Информация : Audio Coding 3
Расширение режима : CM (complete main)
Идентификатор кодека : A_AC3
Продолжительность : 2 ч. 9 м.
Вид битрейта : Постоянный
Битрейт : 192 Кбит/сек
Каналы : 2 канала
Расположение каналов : Front: L R
Частота : 48,0 КГц
Битовая глубина : 16 бит
Метод сжатия : С потерями
Размер потока : 178 Мбайт (1%)
Заголовок : RUS.MVO.AC-3 2.0 ~192 kbps
Язык : Russian
Default : Да
Forced : Нет
Аудио #2
Идентификатор : 3
Формат : DTS
Формат/Информация : Digital Theater Systems
Профиль формата : MA / Core
Идентификатор кодека : A_DTS
Продолжительность : 2 ч. 9 м.
Вид битрейта : Переменный
Битрейт : 1558 Кбит/сек / 1510 Кбит/сек
Каналы : 4 канала
Расположение каналов : Front: L C R, Back: C / Front: L C R, Side: C
Частота : 48,0 КГц
Битовая глубина : 24 бит
Метод сжатия : Без потерь / Lossy
Заголовок : ENG.ORIG.DTS-HD MA 4.0 ~2522 kbps
Язык : English
Default : Нет
Forced : Нет
Меню
00:00:00.000 : en:00:00:00.000
00:16:37.955 : en:00:16:37.955
00:27:23.392 : en:00:27:23.392
00:36:34.734 : en:00:36:34.734
00:45:55.127 : en:00:45:55.127
00:59:17.721 : en:00:59:17.721
01:12:24.173 : en:01:12:24.173
01:27:47.512 : en:01:27:47.512
01:37:51.074 : en:01:37:51.074
01:43:37.795 : en:01:43:37.795
01:51:28.181 : en:01:51:28.181
02:05:02.412 : en:02:05:02.412
Скриншоты:
           
Время раздачи: 24/7, до нескольких сидов Оформление и ремуксинг by sergey2925©
Вне форума [Профиль] [ЛС]

Dracula

Стаж: 3 года 1 месяц

Сообщений: 9897

Торрент-статистика

Пост 28-Апр-2013 11:56 (спустя 1 день 11 часов)

Топик был перенесен из форума Разножанровые коллекции книг и библиотеки в форум Фильмы до 2000 года


alex
 
Похожие темы
Форум Тема Автор Торрент Отв. Посл. сообщение
./templates/default/images/folder_dl.gif Фильмы 2001-2010 Хоббит: Нежданное путешествие / The Hobbit: An Unexpected Journey (Питер Джексон.)(Фэнтези,Приключения.2012) WEB-DLRip KirovSOFT
1 | 0

0 | 1413

55

2013-10-23 10:18
KirovSOFT Последнее
./templates/default/images/folder_dl.gif Иностранные мультфильмы Балто 2: В поисках волка / Балто 2: Путешествие волка / Болто 2 / Balto: Wolf Quest / Balto 2: Travel of the Wolf (Фил Вейнштейн / Phil Weinstein) [2002, мультфильм, приключения, семейный, HDTVRip] Dub (Премьер Диджитал) + 2MVO Omen
1 | 0

0 | 240

4

2015-07-24 12:00
Omen Последнее
./templates/default/images/folder_dl.gif Книги для IPhone, IPod, Apple Байбородин Александр - Урук-Хай, или путешествие Туда... [Xiksi (ЛИ), 2015, Фэнтези, 128 kbps], M4B VHS
1 | 0

0 | 224

1

2016-05-02 19:21
VHS Последнее
Показать сообщения:    
Ответить на тему

Текущее время: Сегодня 20:59

Часовой пояс: GMT + 3



Вы не можете начинать темы
Вы не можете отвечать на сообщения
Вы не можете редактировать свои сообщения
Вы не можете удалять свои сообщения
Вы не можете голосовать в опросах
Вы не можете прикреплять файлы к сообщениям
Вы не можете скачивать файлы