Сегодня идет свободное скачивание без начисления Download

Дженнифер 8 / Jennifer Eight (Брюс Робинсон / Bruce Robinson) [1992 г., триллер, драма, криминал, детектив, DVDRip] [AVO] (Андрей Гаврилов)

Ответить на тему
 
Автор
Сообщение

maxkiller ®

Пол:

Стаж: 3 года 10 месяцев

Сообщений: 282

Торрент-статистика

Пост 27-Апр-2013 21:50

[Цитировать]

Дженнифер 8 / Jennifer Eight
Год выпуска: 1992
Страна: США
Жанр: триллер, драма, криминал, детектив
Продолжительность: 02:05:18
Перевод: Авторский (одноголосный)[Андрей Гаврилов]
Cубтитры: нет
Режиссер: Брюс Робинсон /Bruce Robinson
В ролях: Энди Гарсиа /Andy Garcia/, Ума Турман /Uma Thurman/, Лэнс Хенриксен /Lance Henriksen/, Кэти Бэйкер /Kathy Baker/, Грэм Беккел /Graham Beckel/, Кевин Конуэй /Kevin Conway/, Джон Малкович /John Malkovich/, Ленни Фон Долен /Lenny Von Dohlen/, Пол Бэйтс /Paul Bates/, Перри Лэнг /Perry Lang/, Николас Лав /Nicholas Love/, Брайан Ларкин /Bryan Larkin/, Майкл О'Нейлл /Michael O'Neill/, Роберт Гантон /Robert Gunton
Описание: Уставший от кошмаров Лос-Анджелеса полицейский (Гарсиа) переводится в небольшой городок в Северной Калифорнии, где на его голову сразу же сваливается расследование серии зверских убийств. Будет ли следующей жертвой удивительно прекрасная блондинка (Ума Турман)? Высочайшего класса триллер, безупречная игра всех актеров-IMDB | КиноПоиск
Качество: DVDRip
Формат: AVI
Видео кодек: XviD
Аудио кодек: MP3
Видео: 704x400 (1.76:1), 23.976 fps, XviD build 46 ~1434 kbps avg, 0.21 bit/pixel
Аудио: 48 kHz, MPEG Layer 3, 2 ch, ~114.50 kbps avg

MI

E:INTERNETÄæåííèôåð âîñåìü.1992.(Ãàâðèëîâ)..avi
General
Complete name : E:INTERNETÄæåííèôåð âîñåìü.1992.(Ãàâðèëîâ)..avi
Format : AVI
Format/Info : Audio Video Interleave
File size : 1.37 GiB
Duration : 2h 5mn
Overall bit rate mode : Variable
Overall bit rate : 1 562 Kbps
Writing application : VirtualDubMod 1.5.4.1 (build 2178/release)
Writing library : VirtualDubMod build 2178/release
Video #0
ID : 0
Format : MPEG-4 Visual
Format profile : Advanced [email protected]
Format settings, BVOP : 1
Format settings, QPel : No
Format settings, GMC : No warppoints
Format settings, Matrix : Custom
Codec ID : XVID
Codec ID/Hint : XviD
Duration : 2h 5mn
Bit rate : 1 435 Kbps
Width : 704 pixels
Height : 400 pixels
Display aspect ratio : 16:9
Frame rate : 23.976 fps
Color space : YUV
Chroma subsampling : 4:2:0
Bit depth : 8 bits
Scan type : Progressive
Compression mode : Lossy
Bits/(Pixel*Frame) : 0.213
Stream size : 1.26 GiB (92%)
Writing library : XviD 1.1.2 (UTC 2006-11-01)
Audio #1
ID : 1
Format : MPEG Audio
Format version : Version 1
Format profile : Layer 3
Mode : Joint stereo
Mode extension : MS Stereo
Codec ID : 55
Codec ID/Hint : MP3
Duration : 2h 5mn
Bit rate mode : Variable
Bit rate : 115 Kbps
Nominal bit rate : 128 Kbps
Channel(s) : 2 channels
Sampling rate : 48.0 KHz
Compression mode : Lossy
Stream size : 103 MiB (7%)
Alignment : Aligned on interleaves
Interleave, duration : 24 ms (0.58 video frame)
Interleave, preload duration : 160 ms
Writing library : LAME3.97
Encoding settings : -m j -V 4 -q 2 -lowpass 17 --abr 128
Language : Russian

Скриншоты

       
Вне форума [Профиль] [ЛС]
Показать сообщения:    
Ответить на тему

Текущее время: Сегодня 02:54

Часовой пояс: GMT + 3



Вы не можете начинать темы
Вы не можете отвечать на сообщения
Вы не можете редактировать свои сообщения
Вы не можете удалять свои сообщения
Вы не можете голосовать в опросах
Вы не можете прикреплять файлы к сообщениям
Вы не можете скачивать файлы