Today is a free download without charge Download

(Country / Folk-Rock) Kenny Loggins with Jim Messina - Sittin' In - 1971, FLAC (image+.cue), lossless

Reply to topic
 
Author
Message

Omen ®

Longevity: 7 years 1 month

Posts: 181090

Торрент-статистика

Post 28-Apr-2013 12:18

[Quote]

Kenny Loggins with Jim Messina / Sittin' In- Жанр: Country / Folk-Rock / Страна-производитель диска: U.S.A.
Год издания: 1971 / Издатель (лейбл): Columbia Records
Номер по каталогу: CK 31044 / Страна: United States
Аудиокодек: FLAC (*.flac) / Тип рипа: image+.cue
Битрейт аудио: lossless / Продолжительность: 00:45:14
Источник (релизер): I Am / Наличие сканов в содержимом раздачи: да
-Треклист:01. Nobody But You (Jim Messina)03:00
02. Danny's Song (Kenny Loggins)04:16
03. Vahevala (Dan Loggins, Dann Lottermoser)04:47
04. Trilogy: Lovin' Me/To Make a Woman Feel Wanted/Peace of Mind (Loggins, Messina, Murray MacLeod)11:13
05. Back to Georgia (Loggins)03:19
06. House at Pooh Corner (Loggins)04:25
07. Listen to a Country Song (Messina, Al Garth)02:49
08. Same Old Wine (Messina)08:17
09. Rock 'n' Roll Mood (Loggins, Michael Omartian)03:04
-

EAC Log

Exact Audio Copy V1.0 beta 3 from 29. August 2011
Отчёт EAC об извлечении, выполненном 25. апреля 2013, 22:28
Kenny Loggins with Jim Messina / Sittin' In
Дисковод: Optiarc DVD RW AD-5280S Adapter: 0 ID: 0
Режим чтения : ДостоверностьИспользование точного потока : ДаОтключение кэша аудио : ДаИспользование указателей C2 : Нет
Коррекция смещения при чтении : 48Способность читать области Lead-in и Lead-out : НетЗаполнение пропущенных сэмплов тишиной : ДаУдаление блоков с тишиной в начале и конце : НетПри вычислениях CRC использовались нулевые сэмплы : ДаИнтерфейс : Встроенный Win32-интерфейс для Win NT/2000
Выходной формат : Внутренние WAV-операцииФормат сэмплов : 44.100 Гц; 16 бит; стерео
TOC извлечённого CD
Трек | Старт | Длительность | Начальный сектор | Конечный сектор --------------------------------------------------------------------- 1 | 0:00.00 | 3:00.25 | 0 | 13524 2 | 3:00.25 | 4:16.37 | 13525 | 32761 3 | 7:16.62 | 4:47.23 | 32762 | 54309 4 | 12:04.10 | 11:13.70 | 54310 | 104854 5 | 23:18.05 | 3:19.20 | 104855 | 119799 6 | 26:37.25 | 4:25.27 | 119800 | 139701 7 | 31:02.52 | 2:49.58 | 139702 | 152434 8 | 33:52.35 | 8:17.27 | 152435 | 189736 9 | 42:09.62 | 3:04.50 | 189737 | 203586
Характеристики диапазона извлечения и сообщения об ошибках
Выбранный диапазон
Имя файла D:\Запись\Kenny Loggins with Jim Messina - Sittin' In\Kenny Loggins with Jim Messina - Sittin' In.wav
Пиковый уровень 98.6 % Скорость извлечения 4.0 X Качество диапазона 100.0 % CRC теста 36EFD0A0 CRC копии 36EFD0A0 Копирование... OK
Ошибок не произошло
AccurateRip: сводка
Трек 1 точность не определена (достоверность 11) [04412CCE], AccurateRip вернул [9C7E5193] (AR v2)Трек 2 точность не определена (достоверность 12) [AE79AD89], AccurateRip вернул [9768B20E] (AR v2)Трек 3 точность не определена (достоверность 12) [D6470F5A], AccurateRip вернул [1FAA5D1E] (AR v2)Трек 4 точность не определена (достоверность 11) [2A4A6CF2], AccurateRip вернул [B618C89C] (AR v2)Трек 5 точность не определена (достоверность 12) [D14E3D04], AccurateRip вернул [1E8BD26C] (AR v2)Трек 6 точность не определена (достоверность 12) [C577F428], AccurateRip вернул [38C98ABC] (AR v2)Трек 7 точность не определена (достоверность 12) [92BC3007], AccurateRip вернул [513D1CE6] (AR v2)Трек 8 точность не определена (достоверность 12) [C2307436], AccurateRip вернул [1EECC50F] (AR v2)Трек 9 точность не определена (достоверность 11) [C4CCEB17], AccurateRip вернул [B454536E] (AR v2)
Ни один трек не прошёл проверки на точностьВ вашей базе может быть иной вариант штамповки диска
Конец отчёта

AUDIOCHECKE

AUDIOCHECKER v2.0 beta (build 457) - by Dester - op[email protected]~~~~~~~~~~~~~~~~~~~~~~~~~~~~~~~~~~
Started at: четверг, 25. 04. 2013. - 22:50.021 file found
1 -===- D:\Запись\Kenny Loggins with Jim Messina - Sittin' In\Kenny Loggins with Jim Messina - Sittin' In.flac Extracted successfully Conclusion: this track is CDDA with probability 100% Tempfile successfully deleted.
Finished at: четверг, 25. 04. 2013. - 22:53.25 (operation time: 0:03.23)

-

Tau Analyzer

Spectrum

Other forum [Profile] [PM]

Dracula

Longevity: 6 years 1 month

Posts: 10704

Торрент-статистика

Post 28-Apr-2013 17:31 (after 5 hours)

Топик был перенесен из форума Rock в форум Country


RUGUI
 
Display posts from previous:    
Reply to topic

The time now is: Today 19:34

All times are GMT + 3 Hours



You cannot post new topics in this forum
You cannot reply to topics in this forum
You cannot edit your posts in this forum
You cannot delete your posts in this forum
You cannot vote in polls in this forum
You cannot attach files in this forum
You cannot download files in this forum