Сегодня идет свободное скачивание без начисления Download

Зеленая миля / The Green Mile (Фрэнк Дарабонт / Frank Darabont) [1999, США, фэнтези, драма, криминал, детектив, BDRip] Dub

Ответить на тему
 
Автор
Сообщение

OFFOSORG ®

Пол:

Стаж: 3 года 9 месяцев

Сообщений: 16

Откуда: Зарайск

Торрент-статистика

Пост 05-Май-2013 09:48

[Цитировать]

Зеленая миля / The Green Mile«Пол Эджкомб не верил в чудеса. Пока не столкнулся с одним из них.» -Год выпуска: 1999
Страна: США
Жанр: фэнтези, драма, криминал, детектив
Продолжительность: 03:08:38
Перевод: Профессиональный (дублированный)
Cубтитры: Отсутствуют-Режиссер: Фрэнк Дарабонт / Frank Darabont
Продюссер: Фрэнк Дарабонт, Дэвид Валдес
Сценарий: Фрэнк Дарабонт, Стивен Кинг
Бюджет: $60 000 000
Премьера в мире: 6 декабря 1999

-В ролях: Том Хэнкс, Дэвид Морс, Майкл Кларк Дункан, Бонни Хант, Джеймс Кромуэлл, Майкл Джитер, Грэм Грин, Даг Хатчисон, Сэм Рокуэлл, Барри Пеппер-Описание: Обвиненный в страшном преступлении, Джон Коффи оказывается в блоке смертников тюрьмы «Холодная гора». Вновь прибывший обладал поразительным ростом и был пугающе спокоен, что, впрочем, никак не влияло на отношение к нему начальника блока Пола Эджкомба, привыкшего исполнять приговор.
Гигант удивил всех позже, когда выяснилось, что он обладает невероятной магической силой…-Качество: BDRip
Формат: AVI
Видео кодек: XviD
Аудио кодек: AC-3
Видео: XviD, 720x400, 16:9, 23,976 кадра/сек, 1804 Кбит/сек
Аудио №1: AC-3, 48,0 КГц, 384 Кбит/сек, 6 каналов (Front: L C R, Side: L R, LFE) - Дубляж- -

MediaInfo

Видео
Идентификатор : 0
Формат : MPEG-4 Visual
Профиль формата : Advanced [email protected]
Параметр BVOP формата : 1
Параметр QPel формата : Нет
Параметр GMC формата : Без точки перехода
Параметр матрицы формата : Выборочная
Идентификатор кодека : XVID
Идентификатор кодека/Подсказка : XviD
Продолжительность : 3 ч. 8 м.
Битрейт : 1804 Кбит/сек
Ширина : 720 пикселей
Высота : 400 пикселей
Соотношение сторон : 16:9
Частота кадров : 23,976 кадра/сек
Цветовое пространство : YUV
Субдискретизация насыщенности : 4:2:0
Битовая глубина : 8 бит
Тип развёртки : Прогрессивная
Метод сжатия : С потерями
Бит/(Пиксели*Кадры) : 0.261
Размер потока : 2,38 Гбайт (82%)
Библиотека кодирования : XviD 58
Аудио
Идентификатор : 1
Формат : AC-3
Формат/Информация : Audio Coding 3
Расширение режима : CM (complete main)
Параметр Endianness формата : Big
Идентификатор кодека : 2000
Продолжительность : 3 ч. 8 м.
Вид битрейта : Постоянный
Битрейт : 384 Кбит/сек
Каналы : 6 каналов
Расположение каналов : Front: L C R, Side: L R, LFE
Частота : 48,0 КГц
Битовая глубина : 16 бит
Метод сжатия : С потерями
Размер потока : 518 Мбайт (17%)
Выравнивание : Разделение по промежуткам
Продолжительность промежутка : 42 мс. (1,00 видеокадр)
Время предзагрузки промежутка : 500 мс.

Скриншот с названием фильма:

Скриншоты:

                                                                                                                       

_________________
Ты не можешь изменить свою судьбу! Никто не может...
Но всё же лучше пытаться что-нибудь сделать, чем смиренно ждать своей смерти...
Вне форума [Профиль] [ЛС]
Похожие темы
Форум Тема Автор Торрент Отв. Посл. сообщение
./templates/default/images/folder_dl.gif Фантастика, фэнтези, ужасы, мистика Игорь Марченко - Зелёные береты (Scaners) [2012] [MP3] Omen
1 | 0

0 | 458

3

2012-11-20 21:56
Omen Последнее
./templates/default/images/folder_dl.gif Отечественные мультфильмы Сказочная Русь (Владимир Зеленский) [2012 г., Сатирический мультипликационный проект, SATRip] Ruvest
1 | 0

2 | 1243

15

2013-01-18 23:58
sashaulasik Последнее
./templates/default/images/folder_dl.gif Фильмы в формате 3D (*iso) Зелёный Шершень в 3Д / The Green Hornet 3D (Мишель Гондри / Michel Gondry) [2011, боевик, комедия, криминал, Blu-ray Remux 1080p] BD3D CEE Omen
1 | 0

0 | 664

6

2014-12-21 23:00
Omen Последнее
./templates/default/images/folder_dl.gif Фильмы в формате 3D Зелёный Шершень в 3Д / The Green Hornet 3D (Мишель Гондри / Michel Gondry) [2011, боевик, комедия, криминал, BDRip-AVC] Half OverUnder / Вертикальная анаморфная стереопара Omen
1 | 0

0 | 234

4

2015-04-13 03:00
Omen Последнее
Показать сообщения:    
Ответить на тему

Текущее время: Сегодня 22:52

Часовой пояс: GMT + 3



Вы не можете начинать темы
Вы не можете отвечать на сообщения
Вы не можете редактировать свои сообщения
Вы не можете удалять свои сообщения
Вы не можете голосовать в опросах
Вы не можете прикреплять файлы к сообщениям
Вы не можете скачивать файлы