Сегодня идет свободное скачивание без начисления Download

Вилли Вонка и шоколадная фабрика / Willy Wonka & the Chocolate Factory (1971) DVDRip [H.264]

Ответить на тему
 
Автор
Сообщение

UndegraundMen ®

Стаж: 3 года 9 месяцев

Сообщений: 28329

Торрент-статистика

Пост 06-Май-2013 00:07

[Цитировать]

Вилли Вонка и шоколадная фабрика / Willy Wonka & the Chocolate Factory (1971) DVDRip- Русское название: Вилли Вонка и шоколадная фабрика
Оригинальное название: Willy Wonka & the Chocolate Factory
Год выпуска: 1971
Производство: США / David L. Wolper Productions
Жанр: Мьюзикл, Фэнтези, Семейный-Описание фильма:
Владелец шоколадной фабрики – Вилли Вонка устраивает лотерею. Он прячет в пяти из шоколадок, выпускаемых своей фабрикой, золотые билеты. Вскоре пятеро счастливцев отправляются на экскурсию по фабрике, где делают столь прекрасный и любимый всеми шоколад. Из пятерых претендентов только один получит главный приз – запас шоколада, которого ему хватит на всю жизнь. Среди претендентов на приз оказывается мальчик Чарли, ему придется пройти все испытание шоколадного короля Вилли Вонка, чтобы получить долгожданный приз..-Режиссер: Мэл Стюарт
Продюсер: Стэн Маргулис, Дэвид Л. Волпер
Актеры: Джин Уайлдер, Джек Альбертсон, Питер Острам, Рой Киннер, Джули Доун Коул, Леонард Стоун, Денис Никерсон, Нора Денни, Парис Теммен, Урсула Райт, Майкл Боллнер, Дайэна Саул, Обри Вудс, Дэвид Баттли, Гюнтер Майснер, Питер Капелла, Вернер Хейкинг, Питер Стюарт, Дора Альтман, Руди Боргсатллер, Тим Брук-Тейлор, Джордж Клэйдон, Пэт Кумбс, Фрэнк Делфино, Малкольм Диксон, Стивен Данн, Расти Гофф, Анджело Мускат, Эрнст Циглер-Продолжительность: 01:39:45
Перевод: Многоголосый закадровый, профессиональный
Релиз группа: Тorrent-Хzona
Язык субтитров: Русские
Вид субтитров: Вшитые отключаемые- -Дата мировой премьеры: 30 июня 1971-Видеокодек: MPEG-4 AVC/H.264
Битрейт видео: ~1750 Кб/сек
Размер кадра: 1024x576
Качество видео: DVDRip
Аудиокодек: AC3 5.1
Битрейт аудио: 224 Кб/сек

MediaInfo

Общее
Уникальный идентификатор : 241861838824559956762012737550662839482 (0xB5F4E551D12527F19B22FCD48AB92CBA)
Полное имя : D:\Торрент раздача\Villi.Vonka.i.shokoladnaya.fabrika.1971..x264.ВDRip.(AVC).by.Тorrent-Хzona.mkv
Формат : Matroska
Версия формата : Version 2
Размер файла : 1,38 Гбайт
Продолжительность : 1 ч. 39 м.
Общий поток : 1976 Кбит/сек
Дата кодирования : UTC 2013-05-03 11:00:42
Программа кодирования : mkvmerge v5.8.0 ('No Sleep / Pillow') built on Sep 2 2012 15:37:04
Библиотека кодирования : libebml v1.2.3 + libmatroska v1.3.0
Видео
Идентификатор : 1
Формат : AVC
Формат/Информация : Advanced Video Codec
Профиль формата : [url=mailto:[email protected]][email protected][/url]
Параметр CABAC формата : Да
Параметр ReFrames формата : 4 кадра
Идентификатор кодека : V_MPEG4/ISO/AVC
Продолжительность : 1 ч. 39 м.
Битрейт : 1750 Кбит/сек
Ширина : 1024 пикселя
Высота : 576 пикселей
Соотношение сторон : 16:9
Режим частоты кадров : Постоянный
Частота кадров : 23,976 кадра/сек
Цветовое пространство : YUV
Субдискретизация насыщенности : 4:2:0
Битовая глубина : 8 бит
Тип развёртки : Прогрессивная
Бит/(Пиксели*Кадры) : 0.124
Размер потока : 1,19 Гбайт (87%)
Библиотека кодирования : x264 core 125 r2208 d9d2288
Настройки программы : cabac=1 / ref=3 / deblock=1:-1:-1 / analyse=0x3:0x111 / me=umh / subme=9 / psy=1 / psy_rd=1.00:0.15 / mixed_ref=1 / me_range=32 / chroma_me=1 / trellis=2 / 8x8dct=1 / cqm=0 / deadzone=21,11 / fast_pskip=0 / chroma_qp_offset=-3 / threads=3 / lookahead_threads=1 / sliced_threads=0 / nr=0 / decimate=1 / interlaced=0 / bluray_compat=0 / constrained_intra=0 / bframes=3 / b_pyramid=2 / b_adapt=0 / b_bias=0 / direct=1 / weightb=1 / open_gop=0 / weightp=2 / keyint=250 / keyint_min=23 / scenecut=40 / intra_refresh=0 / rc_lookahead=50 / rc=2pass / mbtree=1 / bitrate=1750 / ratetol=1.0 / qcomp=0.60 / qpmin=0 / qpmax=69 / qpstep=4 / cplxblur=20.0 / qblur=0.5 / ip_ratio=1.40 / aq=1:1.00
Default : Да
Forced : Нет
Аудио
Идентификатор : 2
Формат : AC-3
Формат/Информация : Audio Coding 3
Расширение режима : CM (complete main)
Параметр Endianness формата : Big
Идентификатор кодека : A_AC3
Продолжительность : 1 ч. 39 м.
Вид битрейта : Постоянный
Битрейт : 224 Кбит/сек
Каналы : 6 каналов
Расположение каналов : Front: L C R, Side: L R, LFE
Частота : 48,0 КГц
Битовая глубина : 16 бит
Метод сжатия : С потерями
Размер потока : 160 Мбайт (11%)
Default : Да
Forced : Нет
Скриншоты:
                   
Время раздачи: 24/7
Вне форума [Профиль] [ЛС]
Показать сообщения:    
Ответить на тему

Текущее время: Сегодня 17:33

Часовой пояс: GMT + 3



Вы не можете начинать темы
Вы не можете отвечать на сообщения
Вы не можете редактировать свои сообщения
Вы не можете удалять свои сообщения
Вы не можете голосовать в опросах
Вы не можете прикреплять файлы к сообщениям
Вы не можете скачивать файлы