Сегодня идет свободное скачивание без начисления Download

Вздерни их повыше / Hang \'em High (1968) [1080p] BDRip

Ответить на тему
 
Автор
Сообщение

UndegraundMen ®

Стаж: 3 года 9 месяцев

Сообщений: 28329

Торрент-статистика

Пост 06-Май-2013 00:07

[Цитировать]

Вздерни их повыше / Hang 'em High (1968) BDRip-«The hanging was the best show in town. But they made two mistakes. They hung the wrong man and they didn't finish the job.»
Русское название: Вздерни их повыше
Оригинальное название: Hang 'em High
Год выпуска: 1968
Жанр: Боевик, Триллер, Драма
Описание фильма:
Оклахома, 1873 год. Джеда Купера, ошибочно приняли за грабителя и убийцу, угнавшего чужой скот. Продажный судья Уилсон приговорил героя к "суду линча" через повешение. Раненый Ковбой чудом остался жив, только потому, что местный шериф подрезал веревку. Прекрасная девушка Рейчел выходила ковбоя, и помогла ему восстановить справедливость. У Рейчел были веские причины не доверять местному правосудию. Со временем Купер был оправдан и назначен судебным исполнителем. Став представителем власти и правосудия штата, мужественный герой разыскал всех своих обидчиков, и привел на скамью подсудимых, где им был вынесен смертельный приговор.
Режиссер: Тед Пост
Актеры: Клинт Иствуд, Ингер Стивенс, Эд Бегли, Пэт Хингл, Бен Джонсон, Чарльз МакГроу, Рут Уайт, Брюс Дерн, Алан Хейл мл., Арлин Голонка, Джеймс Уэстерфилд, Деннис Хоппер, Л. К. Джонс, Майкл О`Салливан, Джозеф Сирола, Джеймс МакАртур, Боб Стил, Берт Фрид, Расселл Торсон, Нед Ромеро, Джонатан Липпе, Ричард Гейтс, Брюс Скотт, Тод Эндрюс, Рой Гленн, Пол Соренсен, Ларри Дж. Блейк, Тед Торпе, Роберт Джонс, Бэрри Кехилл, Джон Уэсли, Билл Закерт, Хэл Инглэнд, Роберт Уильямс, Тони Ди Мило, Джон Кохрэн, Херберт Эллис, Джоэл Флюллен, Джек Джинг
Продолжительность: 01:54:39
Перевод 1: Многоголосый закадровый (20th Century Fox)
Перевод 2: Многоголосый закадровый (SomeWax)
Язык субтитров: Русские, английские
Вид субтитров: Вшитые

Дата мировой премьеры: 31 июля 1968
Дата выхода DVD релиза: 26 ноября 2009, «Двадцатый Век Фокс СНГ»

Видеокодек: MPEG-4 AVC/H.264
Битрейт видео: ~8220 Кбит/с
Размер кадра: 1920x1040
Качество видео: BDRip
Аудио 1: Dolby Digital Audio Russian / 5.1 / 48 kHz / 448 Кбит/с / 16-bit - Профессиональный многоголосый (20th Century Fox)
Аудио 2: Dolby Digital Audio Russian / 2.0 / 48 kHz / 192 Кбит/с / 16-bit - Профессиональный многоголосый (SomeWax)
Аудио 3: Dolby Digital Audio English / 5.1 / 48 kHz / 640 Кбит/с / 16-bit - Оригинал
Сэмпл: Ссылка

MediaInfo

Общее
Уникальный идентификатор : 232749807605510000790420917790731531757 (0xAF19FB7EAEE51A1993E0066F78C9F5ED)
Полное имя : C:\Xvid4PSP\Hang 'em High.1968.BDRip.1080p.mkv
Формат : Matroska
Версия формата : Version 4 / Version 2
Размер файла : 7,61 Гбайт
Продолжительность : 1 ч. 54 м.
Общий поток : 9500 Кбит/сек
Название фильма : Hang 'em High (1968)
Дата кодирования : UTC 2013-05-03 21:46:24
Программа кодирования : mkvmerge v6.2.0 ('Promised Land') built on Apr 28 2013 12:22:01
Библиотека кодирования : libebml v1.3.0 + libmatroska v1.4.0
Видео
Идентификатор : 1
Формат : AVC
Формат/Информация : Advanced Video Codec
Профиль формата : [url=mailto:[email protected]][email protected][/url]
Параметр CABAC формата : Да
Параметр ReFrames формата : 4 кадра
Идентификатор кодека : V_MPEG4/ISO/AVC
Продолжительность : 1 ч. 54 м.
Битрейт : 8220 Кбит/сек
Ширина : 1920 пикселей
Высота : 1040 пикселей
Соотношение сторон : 1,85:1
Режим частоты кадров : Постоянный
Частота кадров : 23,976 кадра/сек
Цветовое пространство : YUV
Субдискретизация насыщенности : 4:2:0
Битовая глубина : 8 бит
Тип развёртки : Прогрессивная
Бит/(Пиксели*Кадры) : 0.172
Размер потока : 6,43 Гбайт (85%)
Заголовок : Hang 'em High (1968)
Библиотека кодирования : x264 core 129 r2230 1cffe9f
Настройки программы : cabac=1 / ref=4 / deblock=1:-1:-1 / analyse=0x3:0x133 / me=umh / subme=10 / psy=1 / psy_rd=1.00:0.10 / mixed_ref=1 / me_range=32 / chroma_me=1 / trellis=2 / 8x8dct=1 / cqm=0 / deadzone=21,11 / fast_pskip=0 / chroma_qp_offset=-1 / threads=12 / lookahead_threads=2 / sliced_threads=0 / nr=0 / decimate=0 / interlaced=0 / bluray_compat=0 / constrained_intra=0 / bframes=4 / b_pyramid=2 / b_adapt=2 / b_bias=0 / direct=3 / weightb=1 / open_gop=0 / weightp=2 / keyint=240 / keyint_min=23 / scenecut=40 / intra_refresh=0 / rc=2pass / mbtree=0 / bitrate=8220 / ratetol=1.0 / qcomp=0.60 / qpmin=0 / qpmax=69 / qpstep=4 / cplxblur=20.0 / qblur=0.5 / ip_ratio=1.40 / pb_ratio=1.30 / aq=1:1.00
Язык : English
Default : Да
Forced : Нет
Аудио #1
Идентификатор : 2
Формат : AC-3
Формат/Информация : Audio Coding 3
Расширение режима : CM (complete main)
Параметр Endianness формата : Big
Идентификатор кодека : A_AC3
Продолжительность : 1 ч. 54 м.
Вид битрейта : Постоянный
Битрейт : 448 Кбит/сек
Каналы : 6 каналов
Расположение каналов : Front: L C R, Side: L R, LFE
Частота : 48,0 КГц
Битовая глубина : 16 бит
Метод сжатия : С потерями
Размер потока : 367 Мбайт (5%)
Заголовок : Многоголосый закадровый, 20th Century Fox
Язык : Russian
Default : Да
Forced : Нет
Аудио #2
Идентификатор : 3
Формат : AC-3
Формат/Информация : Audio Coding 3
Профиль формата : Dolby Digital
Расширение режима : CM (complete main)
Параметр Endianness формата : Big
Идентификатор кодека : A_AC3
Продолжительность : 1 ч. 54 м.
Вид битрейта : Постоянный
Битрейт : 192 Кбит/сек
Каналы : 2 канала
Расположение каналов : Front: L R
Частота : 48,0 КГц
Битовая глубина : 16 бит
Метод сжатия : С потерями
Размер потока : 157 Мбайт (2%)
Заголовок : Многоголосый закадровый, R5, SomeWax
Язык : Russian
Default : Нет
Forced : Нет
Аудио #3
Идентификатор : 4
Формат : AC-3
Формат/Информация : Audio Coding 3
Расширение режима : CM (complete main)
Параметр Endianness формата : Big
Идентификатор кодека : A_AC3
Продолжительность : 1 ч. 54 м.
Вид битрейта : Постоянный
Битрейт : 640 Кбит/сек
Каналы : 6 каналов
Расположение каналов : Front: L C R, Side: L R, LFE
Частота : 48,0 КГц
Битовая глубина : 16 бит
Метод сжатия : С потерями
Размер потока : 525 Мбайт (7%)
Заголовок : Original English
Язык : English
Default : Нет
Forced : Нет
Текст #1
Идентификатор : 5
Формат : UTF-8
Идентификатор кодека : S_TEXT/UTF8
Идентификатор кодека/Информация : UTF-8 Plain Text
Заголовок : Русские
Язык : Russian
Default : Нет
Forced : Нет
Текст #2
Идентификатор : 6
Формат : UTF-8
Идентификатор кодека : S_TEXT/UTF8
Идентификатор кодека/Информация : UTF-8 Plain Text
Заголовок : Английские
Язык : English
Default : Нет
Forced : Нет
Меню
00:00:00.000 : en:Chapter 1
00:02:07.000 : en:Chapter 2
00:08:40.000 : en:Chapter 3
00:14:42.000 : en:Chapter 4
00:19:14.000 : en:Chapter 5
00:22:49.000 : en:Chapter 6
00:25:08.000 : en:Chapter 7
00:28:57.000 : en:Chapter 8
00:31:17.000 : en:Chapter 9
00:32:58.000 : en:Chapter 10
00:38:04.000 : en:Chapter 11
00:39:29.000 : en:Chapter 12
00:42:31.000 : en:Chapter 13
00:45:02.000 : en:Chapter 14
00:47:29.000 : en:Chapter 15
00:50:23.000 : en:Chapter 16
00:56:57.000 : en:Chapter 17
00:58:08.000 : en:Chapter 18
01:03:40.000 : en:Chapter 19
01:04:43.000 : en:Chapter 20
01:07:37.000 : en:Chapter 21
01:10:14.000 : en:Chapter 22
01:13:46.000 : en:Chapter 23
01:16:05.000 : en:Chapter 24
01:20:56.000 : en:Chapter 25
01:21:57.000 : en:Chapter 26
01:27:07.000 : en:Chapter 27
01:30:53.000 : en:Chapter 28
01:35:59.000 : en:Chapter 29
01:39:32.000 : en:Chapter 30
01:41:18.000 : en:Chapter 31
01:49:07.000 : en:Chapter 32
01:54:38.000 : en:Chapter 33
Скриншоты:
         
Время раздачи: 24/7
Вне форума [Профиль] [ЛС]
Показать сообщения:    
Ответить на тему

Текущее время: Сегодня 22:17

Часовой пояс: GMT + 3



Вы не можете начинать темы
Вы не можете отвечать на сообщения
Вы не можете редактировать свои сообщения
Вы не можете удалять свои сообщения
Вы не можете голосовать в опросах
Вы не можете прикреплять файлы к сообщениям
Вы не можете скачивать файлы