Сегодня идет свободное скачивание без начисления Download

Герцогиня и Драный Лис / The Duchess and the Dirtwater Fox (1976) [H.264]DVDRip

Ответить на тему
 
Автор
Сообщение

UndegraundMen ®

Стаж: 3 года 9 месяцев

Сообщений: 28329

Торрент-статистика

Пост 07-Май-2013 00:00

[Цитировать]

Герцогиня и Драный Лис / The Duchess and the Dirtwater Fox (1976)[H.264] DVDRip -«Once upon a time, If the rustlers didn't get you, the hustlers did.»- Русское название: Герцогиня и Драный Лис
Оригинальное название: The Duchess and the Dirtwater Fox
Год выпуска: 1976
Жанр: Комедия, Вестерн
Страна: США
Производство: 20th Century Fox Film Corporation
Описание фильма:
1882 год. Аманда — искательница приключений и танцовщица. Чарли — карточный шулер. Оба они любят деньги, особенно добытые нечестным путем. Влюбившись в него, она понимает, что есть вещи и попрекраснее денег. Теперь остается только ему пересмотреть свое отношение к жизни. Вместе они оказываются втянуты в аферу с кражей 40 тысяч долларов…
Режиссер: Мелвин Фрэнк
Сценарий: Бэрри Сэндлер, Мелвин Фрэнк, Джек Роуз
Продюсер: Мелвин Фрэнк
Актеры: Джордж Сигал, Голди Хоун, Конрад Дженис, Тэйер Дэвид, Дженнифер Ли, Сид Гулд, Пэт Эст, Э.Дж. Андре, Ричард Фарнсуорт, Клиффорд Тёркнетт
Продолжительность: 01:43:41
Перевод: Двуголосый закадровый
Субтитры: Отсутствуют

Дата мировой премьеры: 1 апреля 1976
Видеокодек: MPEG-4 AVC/H.264
Битрейт видео: ~1770 Кбит/сек
Размер кадра: 720x304
Качество видео: DVDRip
Аудиокодек: AC3 2.0
Битрейт аудио: 192 kbps

Награды:

Золотой глобус, 1977 год
Номинации (1):
Лучшая женская роль (комедия или мюзикл) (Голди Хоун)

MediaInfo:

General
Unique ID : 220142321123808888563976416517298539364 (0xA59DDE6B81C58F699D1170696E534B64)
Complete name : H:\Downloads\Герцогиня и Драный Лис.mkv
Format : Matroska
Format version : Version 4 / Version 2
File size : 1.42 GiB
Duration : 1h 43mn
Overall bit rate : 1 964 Kbps
Encoded date : UTC 2013-05-05 04:39:12
Writing application : mkvmerge v6.0.0 ('Coming Up For Air') built on Jan 20 2013 09:52:00
Writing library : libebml v1.3.0 + libmatroska v1.4.0
Video
ID : 1
Format : AVC
Format/Info : Advanced Video Codec
Format profile : [url=mailto:[email protected]][email protected][/url]
Format settings, CABAC : Yes
Format settings, ReFrames : 5 frames
Codec ID : V_MPEG4/ISO/AVC
Duration : 1h 43mn
Bit rate : 1 770 Kbps
Width : 720 pixels
Height : 304 pixels
Display aspect ratio : 2.35:1
Frame rate mode : Constant
Frame rate : 23.976 fps
Color space : YUV
Chroma subsampling : 4:2:0
Bit depth : 8 bits
Scan type : Progressive
Bits/(Pixel*Frame) : 0.337
Stream size : 1.26 GiB (88%)
Title : The Duchess and the Dirtwater Fox
Writing library : x264 core 125 r2208 d9d2288
Encoding settings : cabac=1 / ref=5 / deblock=1:-1:-1 / analyse=0x3:0x113 / me=umh / subme=9 / psy=1 / psy_rd=1.00:0.10 / mixed_ref=1 / me_range=32 / chroma_me=1 / trellis=2 / 8x8dct=1 / cqm=0 / deadzone=21,11 / fast_pskip=0 / chroma_qp_offset=-3 / threads=6 / lookahead_threads=1 / sliced_threads=0 / nr=0 / decimate=1 / interlaced=0 / bluray_compat=0 / constrained_intra=0 / bframes=3 / b_pyramid=2 / b_adapt=2 / b_bias=0 / direct=3 / weightb=1 / open_gop=0 / weightp=2 / keyint=250 / keyint_min=25 / scenecut=40 / intra_refresh=0 / rc_lookahead=50 / rc=2pass / mbtree=1 / bitrate=1770 / ratetol=1.0 / qcomp=0.60 / qpmin=10 / qpmax=51 / qpstep=4 / cplxblur=20.0 / qblur=0.5 / ip_ratio=1.40 / aq=1:1.00
Language : English
Default : Yes
Forced : No
Audio
ID : 2
Format : AC-3
Format/Info : Audio Coding 3
Mode extension : CM (complete main)
Format settings, Endianness : Big
Codec ID : A_AC3
Duration : 1h 43mn
Bit rate mode : Constant
Bit rate : 192 Kbps
Channel(s) : 2 channels
Channel positions : Front: L R
Sampling rate : 48.0 KHz
Bit depth : 16 bits
Compression mode : Lossy
Stream size : 142 MiB (10%)
Title : Двухголосый
Language : Russian
Default : Yes
Forced : No
Скриншоты:                    Время раздачи: с 12:00 до 24:00 по Москве (выходные круглосуточно), до 10 скачавших
Вне форума [Профиль] [ЛС]
Показать сообщения:    
Ответить на тему

Текущее время: Сегодня 05:08

Часовой пояс: GMT + 3



Вы не можете начинать темы
Вы не можете отвечать на сообщения
Вы не можете редактировать свои сообщения
Вы не можете удалять свои сообщения
Вы не можете голосовать в опросах
Вы не можете прикреплять файлы к сообщениям
Вы не можете скачивать файлы