Сегодня идет свободное скачивание без начисления Download

Чингачгук – Большой Змей / Chingachgook, die grosse Schlange (1967) DVDRip [H.264]

Ответить на тему
 
Автор
Сообщение

UndegraundMen ®

Стаж: 3 года 9 месяцев

Сообщений: 28329

Торрент-статистика

Пост 10-Май-2013 00:02

[Цитировать]

Чингачгук – Большой Змей / Chingachgook, die grosse Schlange (1967) DVDRip- Русское название: Чингачгук – Большой Змей
Оригинальное название: Chingachgook, die grosse Schlange
Год выпуска: 1967
Производство: Германия (ГДР) / Киностудия Дефа
Жанр: Драма, Вестерн, Приключения-Описание фильма:
1740 год. Английские войска пытаются отбить у французов их североамериканские колонии и втягивают в эту войну индейцев. В руки гуронов, которых французы натравили на делаваров, попадает Уа-та-Уа, дочь вождя, обещанная Чингачгуку. Он собирается освободить ее с помощью своего друга Зверобоя. Неподалеку от лагеря гуронов они сталкиваются с охотниками за скальпами. Чингачгук попадает в плен к гуронам. Он пытается убедить их, что индейцам нет дела до войны между белыми. Но это ему не удается. Между тем один из охотников приводит английских солдат, которые наголову разбивают гуронов. Теперь их тяжело раненный вождь понимает, что Чингачгук был прав. Сумеют ли Чингачгук, Уа-та-Уа и Зверобой выжить в этой резне?-Режиссер: Рихард Грошопп
Актеры: Гойко Митич, Рольф Ремер, Андреа Драхота, Хельмут Шрайбер, Хорст Пройскер, Лило Грэх, Юрген Фрорип, Адольф Петер Хоффман, Рудольф Ульрих-Продолжительность: 01:23:14
Перевод: Дублированный- -Дата мировой премьеры: 25 июня 1967-Видеокодек: MPEG-4 AVC/H.264
Битрейт видео: ~1122 kb/s
Размер кадра: 752x416
Качество видео: DVDRip
Аудиокодек: MP3 (2 ch)
Битрейт аудио: 128 kb/s

MediaInfo

Общее
Уникальный идентификатор : 213000362269760914465117407492190991759 (0xA03E60A97AFDA32D8C264D4A1DE7758F)
Полное имя : D:\Торрент раздача\Чингачгук – Большой Змей.1967.DVDRip-AVC.H.264.745Mb.mkv
Формат : Matroska
Версия формата : Version 2
Размер файла : 745 Мбайт
Продолжительность : 1 ч. 23 м.
Общий поток : 1252 Кбит/сек
Дата кодирования : UTC 2013-01-10 15:14:58
Программа кодирования : mkvmerge v4.6.0 ('Still Crazy After All These Years') сборка от Apr 1 2011 21:01:49
Библиотека кодирования : libebml v1.2.0 + libmatroska v1.1.0
Видео
Идентификатор : 1
Формат : AVC
Формат/Информация : Advanced Video Codec
Профиль формата : [url=mailto:[email protected]][email protected][/url]
Параметр CABAC формата : Да
Параметр ReFrames формата : 8 кадров
Идентификатор кодека : V_MPEG4/ISO/AVC
Продолжительность : 1 ч. 23 м.
Битрейт : 1122 Кбит/сек
Ширина : 752 пикселя
Высота : 416 пикселей
Соотношение сторон : 16:9
Режим частоты кадров : Постоянный
Частота кадров : 25,000 кадров/сек
Цветовое пространство : YUV
Субдискретизация насыщенности : 4:2:0
Битовая глубина : 8 бит
Тип развёртки : Прогрессивная
Бит/(Пиксели*Кадры) : 0.143
Размер потока : 654 Мбайт (88%)
Библиотека кодирования : x264 core 115 r1937 aa21558
Настройки программы : cabac=1 / ref=8 / deblock=1:-1:-1 / analyse=0x3:0x133 / me=umh / subme=7 / psy=1 / psy_rd=1.00:0.10 / mixed_ref=1 / me_range=16 / chroma_me=1 / trellis=2 / 8x8dct=1 / cqm=0 / deadzone=21,11 / fast_pskip=0 / chroma_qp_offset=-3 / threads=6 / sliced_threads=0 / nr=0 / decimate=1 / interlaced=0 / bluray_compat=0 / constrained_intra=0 / bframes=3 / b_pyramid=2 / b_adapt=2 / b_bias=0 / direct=3 / weightb=1 / open_gop=0 / weightp=2 / keyint=250 / keyint_min=25 / scenecut=40 / intra_refresh=0 / rc_lookahead=50 / rc=2pass / mbtree=1 / bitrate=1122 / ratetol=1.0 / qcomp=0.60 / qpmin=0 / qpmax=69 / qpstep=4 / cplxblur=20.0 / qblur=0.5 / ip_ratio=1.40 / aq=1:1.00
Default : Да
Forced : Нет
Аудио
Идентификатор : 2
Формат : MPEG Audio
Версия формата : Version 1
Профиль формата : Layer 3
Режим : Joint stereo
Расширение режима : MS Stereo
Идентификатор кодека : A_MPEG/L3
Идентификатор кодека/Подсказка : MP3
Продолжительность : 1 ч. 23 м.
Вид битрейта : Постоянный
Битрейт : 128 Кбит/сек
Каналы : 2 канала
Частота : 48,0 КГц
Метод сжатия : С потерями
Размер потока : 76,2 Мбайт (10%)
Библиотека кодирования : LAME3.98r
Настройки программы : -m j -V 4 -q 2 -lowpass 17 -b 128
Default : Да
Forced : Нет
                   Время раздачи: 08:00-23:00 (МСК)
Вне форума [Профиль] [ЛС]
Показать сообщения:    
Ответить на тему

Текущее время: Сегодня 17:34

Часовой пояс: GMT + 3



Вы не можете начинать темы
Вы не можете отвечать на сообщения
Вы не можете редактировать свои сообщения
Вы не можете удалять свои сообщения
Вы не можете голосовать в опросах
Вы не можете прикреплять файлы к сообщениям
Вы не можете скачивать файлы