Сегодня идет свободное скачивание без начисления Download

Пляж / The Beach (Дэнни Бойл) (2000, триллер, драма, мелодрама, приключения) HDTVRip [H.264]

Ответить на тему
 
Автор
Сообщение

p2000s ®

Пол:

Стаж: 3 года 6 месяцев

Сообщений: 104

Торрент-статистика

Пост 11-Май-2013 10:50

[Цитировать]

Пляж / The Beach (2000) HDTVRip- Русское название: Пляж
Оригинальное название: The Beach
Год выпуска: 2000
Жанр: триллер, драма, мелодрама, приключения
Описание фильма:
Ричард , американский юноша, жаждущий приключений, отправляется в Тайланд, где в дешевой гостинице знакомится со странным человеком. Этот человек передает ему карту таинственного острова, где «трава» растет как сорняк, а на пляже живет коммуна. Это и есть рай на Земле. Ричард знакомится с парочкой французов и они втроем отправляются на этот остров.
Режиссер: Дэнни Бойл
Актеры:
Леонардо Ди Каприо, Тильда Свинтон, Вирджиния Ледуайен, Гийом Кане, Роберт Карлайл, Патерсон Джозеф, Ларс Аренц-Хансен, Питер Янблад Хиллс, Джерри Свиндолл
Продолжительность: 01:59:02
Перевод: Дублированный

Видеокодек: MPEG-4 AVC/H.264
Битрейт видео: ~2000 Kbps
Размер кадра: 960x536
Качество видео: HDTVRip
Аудиокодек: AC3 5.1
Битрейт аудио: 256 Kbps

MediaInfo

General
Unique ID : 183030532627122940944904773936790467972 (0x89B265FA6BCA78D3A2A7B8F4B6AD7584)
Complete name : Пляж.mkv
Format : Matroska
Format version : Version 4 / Version 2
File size : 1.87 GiB
Duration : 1h 59mn
Overall bit rate : 2 251 Kbps
Movie name : Пляж/The Beach (rip by smithland)
Encoded date : UTC 2010-02-22 21:41:31
Writing application : mkvmerge v5.9.0 ('On The Loose')
Writing library : libebml v1.3.0 + libmatroska v1.4.0
Attachment : Yes
Video
ID : 1
Format : AVC
Format/Info : Advanced Video Codec
Format profile : [url=mailto:[email protected]][email protected][/url]
Format settings, CABAC : Yes
Format settings, ReFrames : 10 frames
Codec ID : V_MPEG4/ISO/AVC
Duration : 1h 59mn
Bit rate : 2 000 Kbps
Width : 960 pixels
Height : 536 pixels
Display aspect ratio : 16:9
Frame rate mode : Constant
Frame rate : 23.976 fps
Color space : YUV
Chroma subsampling : 4:2:0
Bit depth : 8 bits
Scan type : Progressive
Bits/(Pixel*Frame) : 0.162
Stream size : 1.62 GiB (87%)
Writing library : x264 core 125 r2208 d9d2288
Encoding settings : cabac=1 / ref=10 / deblock=1:-2:-1 / analyse=0x3:0x133 / me=umh / subme=11 / psy=1 / psy_rd=1.10:0.25 / mixed_ref=1 / me_range=26 / chroma_me=1 / trellis=2 / 8x8dct=1 / cqm=0 / deadzone=21,11 / fast_pskip=0 / chroma_qp_offset=-4 / threads=12 / lookahead_threads=2 / sliced_threads=0 / nr=0 / decimate=1 / interlaced=0 / bluray_compat=0 / constrained_intra=0 / bframes=6 / b_pyramid=2 / b_adapt=1 / b_bias=0 / direct=1 / weightb=1 / open_gop=1 / weightp=2 / keyint=250 / keyint_min=23 / scenecut=40 / intra_refresh=0 / rc_lookahead=50 / rc=abr / mbtree=1 / bitrate=2000 / ratetol=1.0 / qcomp=0.60 / qpmin=0 / qpmax=69 / qpstep=4 / ip_ratio=1.45 / aq=1:1.00
Language : Russian
Default : Yes
Forced : Yes
Color primaries : Generic film
Audio
ID : 2
Format : AC-3
Format/Info : Audio Coding 3
Mode extension : CM (complete main)
Format settings, Endianness : Big
Codec ID : A_AC3
Duration : 1h 59mn
Bit rate mode : Constant
Bit rate : 256 Kbps
Channel(s) : 6 channels
Channel positions : Front: L C R, Side: L R, LFE
Sampling rate : 48.0 KHz
Bit depth : 16 bits
Compression mode : Lossy
Stream size : 218 MiB (11%)
Language : Russian
Default : Yes
Forced : Yes
Скриншоты:
         
         
Время раздачи: 24/7
Вне форума [Профиль] [ЛС]
Показать сообщения:    
Ответить на тему

Текущее время: Сегодня 20:55

Часовой пояс: GMT + 3



Вы не можете начинать темы
Вы не можете отвечать на сообщения
Вы не можете редактировать свои сообщения
Вы не можете удалять свои сообщения
Вы не можете голосовать в опросах
Вы не можете прикреплять файлы к сообщениям
Вы не можете скачивать файлы