Сегодня идет свободное скачивание без начисления Download

Рюи Блаз: Опасное сходство / Ruy Blas (1947) DVDRip

Ответить на тему
 
Автор
Сообщение

UndegraundMen ®

Стаж: 3 года 9 месяцев

Сообщений: 28329

Торрент-статистика

Пост 13-Май-2013 00:00

[Цитировать]

Рюи Блаз: Опасное сходство / Ruy Blas (1947) DVDRip- Русское название: Рюи Блаз: Опасное сходство
Оригинальное название: Ruy Blas
Год выпуска: 1947
Жанр: Драма
Описание фильма:
1695 год. Окончив университет, Рюи Блаз едет в Мадрид искать работу. По дороге он знакомится с герцогом Альбой. Неожиданно на путешественников нападает шайка разбойников и захватывает герцога. Встретившись с предводителем разбойников, Альба крайне поражен удивительным сходством атамана Зафари и студента Рюи Блаза, который умчался на коне герцога за выкупом. Дон Салюстий коварный министр испанской полиции, двоюродный брат Сезара де Базана, главаря банды скрывающегося под именем Зафари, был также поражен сходством молодых людей и решил этим воспользоваться в своих корыстных целях. Он попал в немилость к королеве. И чтобы остаться у власти он закручивает хитроумную интригу против королевы, а удивительная похожесть Рюи Блаза и Сезара де Базана поможет ему в этом. Фильм снят по пьесе Виктора Гюго и по сценарию Жана Кокто.
Режиссер: Пьер Биллон
Актеры: Даниэль Даррье, Жан Марэ, Марсель Эрран, Габриель Дорзиа, Александр Риньо, Джованни Грассо, Поль Амио, Йоне Салинас, Жиль Кеан, Жак Берлиоз, Шарль Лемонтье, Пьер Манье
Продолжительность: 01:39:41
Перевод: Дублированный

Дата мировой премьеры: 18 февраля 1948
Дата выхода DVD релиза: 12 января 2009
Видеокодек: Xvid
Битрейт видео: ~1626 Кбит/с
Размер кадра: 688x496
Качество видео: DVDRip
Аудиокодек:AC3,2ch
Битрейт аудио: 192 Кбит/сек

MI:

Общее
Полное имя : D:\upload\Ryui.Blas.Opasnoe.skhodstvo.1947..avi
Формат : AVI
Формат/Информация : Audio Video Interleave
Размер файла : 1,37 Гбайт
Продолжительность : 1 ч. 36 м.
Общий поток : 2025 Кбит/сек
Программа кодирования : FairUse Wizard - http://fairusewizard.com
Библиотека кодирования : The best and REALLY easy backup tool
Видео
Идентификатор : 0
Формат : MPEG-4 Visual
Профиль формата : Advanced [email protected]
Параметр BVOP формата : 1
Параметр QPel формата : Нет
Параметр GMC формата : Без точки перехода
Параметр матрицы формата : Default (MPEG)
Режим смешивания : Сжатый битовый поток
Идентификатор кодека : XVID
Идентификатор кодека/Подсказка : XviD
Продолжительность : 1 ч. 36 м.
Битрейт : 1626 Кбит/сек
Ширина : 688 пикселей
Высота : 496 пикселей
Соотношение сторон : 1,387
Частота кадров : 25,000 кадров/сек
Цветовое пространство : YUV
Субдискретизация насыщенности : 4:2:0
Битовая глубина : 8 бит
Тип развёртки : Прогрессивная
Метод сжатия : С потерями
Бит/(Пиксели*Кадры) : 0.191
Размер потока : 1,10 Гбайт (80%)
Библиотека кодирования : XviD 1.2.0.dev47 (UTC 2006-11-01)
Аудио #1
Идентификатор : 1
Формат : AC-3
Формат/Информация : Audio Coding 3
Расширение режима : CM (complete main)
Параметр Endianness формата : Big
Идентификатор кодека : 2000
Продолжительность : 1 ч. 36 м.
Вид битрейта : Постоянный
Битрейт : 192 Кбит/сек
Каналы : 2 канала
Расположение каналов : Front: L R
Частота : 48,0 КГц
Битовая глубина : 16 бит
Метод сжатия : С потерями
Размер потока : 133 Мбайт (9%)
Выравнивание : Разделение по промежуткам
Продолжительность промежутка : 40 мс. (1,00 видеокадр)
Время предзагрузки промежутка : 500 мс.
Аудио #2
Идентификатор : 2
Формат : AC-3
Формат/Информация : Audio Coding 3
Расширение режима : CM (complete main)
Параметр Endianness формата : Big
Идентификатор кодека : 2000
Продолжительность : 1 ч. 36 м.
Вид битрейта : Постоянный
Битрейт : 192 Кбит/сек
Каналы : 2 канала
Расположение каналов : Front: L R
Частота : 48,0 КГц
Битовая глубина : 16 бит
Метод сжатия : С потерями
Размер потока : 133 Мбайт (9%)
Выравнивание : Разделение по промежуткам
Продолжительность промежутка : 40 мс. (1,00 видеокадр)
Время предзагрузки промежутка : 500 мс.

-

Рецензия, отзыв о фильме

Действие происходит в начале 17 века, в Испании. Для людей, видевших фильм «Дон Сезар де Базан» будет очень много знакомых имен.
Студент Рюи Блаз оказывается очень похож на кузена министра полиции Селестина — Сезара де Базана, который отказался от титула и промышляет разбоем. Селестин ненавидит королеву и решает опозорить ее. Он выдает Рюи Блаза за своего кузена и представляет ко двору, надеясь влюбить в него королеву.
И Блаза, и Базана играет Жан Маре. И что сказать? Он не просто очарователен, он прекрасен в этих ролях! В обеих ролях он гармоничен, хотя они в корне отличаются друг от друга. Маре больше тридцати, но выглядит он лет на десять моложе. Это его третья крупная роль, и показал он себя великолепно.
arathos
Скриншоты:
                   
Вне форума [Профиль] [ЛС]
Показать сообщения:    
Ответить на тему

Текущее время: Сегодня 14:48

Часовой пояс: GMT + 3



Вы не можете начинать темы
Вы не можете отвечать на сообщения
Вы не можете редактировать свои сообщения
Вы не можете удалять свои сообщения
Вы не можете голосовать в опросах
Вы не можете прикреплять файлы к сообщениям
Вы не можете скачивать файлы