Сегодня идет свободное скачивание без начисления Download

Тюрьма округа Мэкон / Цейтнот / Macon County Jail (Виктория Маспрэтт) (1997, Триллер, Криминал) DVDRip

Ответить на тему
 
Автор
Сообщение

p2000s ®

Пол:

Стаж: 3 года 7 месяцев

Сообщений: 104

Торрент-статистика

Пост 13-Май-2013 12:38

[Цитировать]

Тюрьма округа Мэкон / Цейтнот / Macon County Jail (1997) DVDRip- Русское название: Тюрьма округа Мэкон / Цейтнот
Оригинальное название: Macon County Jail
Производство: США, Concorde-New Horizons, Libra Pictures
Год выпуска: 1997
Жанр: Триллер, Криминал
Описание фильма:
Тридцать три несчастья сваливаются на голову Сьюзен. Сначала она теряет работу, потом застает мужа с любовницей, затем у нее угоняют автомобиль. Саму же Сьюзен несправедливо обвиняют в воровстве и сажают в участке в «обезьянник». Здесь ночью к женщине пристает полицейский (он же - сын местного шерифа), насилует ее, - и, пытаясь сопротивляться, она бьет парня табуреткой по голове. И убивает. В отчаянии Сьюзен вместе с другим заключенным пускается в бега…
Режиссер: Виктория Маспрэтт
Актеры: Элли Шиди, Дэвид Кэрредин, Чарльз Нэпьер, Тод Кимси, Марк Пеллегрино, Дон МакМиллан, Джеки Дебэтин, Джон С. МакДоннел, Марина Андерсон, Марк Арнотт
Продолжительность: 01:31:23
Перевод: Двуголосый закадровый (1), авторский одноголосый (2)
Автор перевода: РенТВ (1), Сергей Визгунов (2)

Качество видео: DVDRip
Видео: 640x480 (1.33:1), 23.976 fps, XviD build 55 ~1764 kbps avg, 0.24 bit/pixel
Аудио 1: 48 kHz, MPEG Layer 3, 1 ch, ~128.00 kbps avg - РенТВ
Аудио 2: 48 kHz, AC3 Dolby Digital, 2/0 (L,R) ch, ~192 kbps - С. Визгунов
Аудио 3: 48 kHz, AC3 Dolby Digital, 2/0 (L,R) ch, ~192 kbps - английский

MediaInfo

General
Complete name : D:\Public\Macon.County.Jail.1997.DVDRip.XviD.avi
Format : AVI
Format/Info : Audio Video Interleave
File size : 1.47 GiB
Duration : 1h 31mn
Overall bit rate : 2 297 Kbps
Writing application : VirtualDubMod 1.5.10.2 (build 2542/release)
Writing library : VirtualDubMod build 2542/release
Video
ID : 0
Format : MPEG-4 Visual
Format profile : Advanced [email protected]
Format settings, BVOP : 1
Format settings, QPel : No
Format settings, GMC : No warppoints
Format settings, Matrix : Custom
Codec ID : XVID
Codec ID/Hint : XviD
Duration : 1h 31mn
Bit rate : 1 766 Kbps
Width : 640 pixels
Height : 480 pixels
Display aspect ratio : 4:3
Frame rate : 23.976 fps
Color space : YUV
Chroma subsampling : 4:2:0
Bit depth : 8 bits
Scan type : Progressive
Compression mode : Lossy
Bits/(Pixel*Frame) : 0.240
Stream size : 1.13 GiB (77%)
Writing library : XviD 1.3.0.dev55
Audio #1
ID : 1
Format : MPEG Audio
Format version : Version 1
Format profile : Layer 3
Codec ID : 55
Codec ID/Hint : MP3
Duration : 1h 31mn
Bit rate mode : Constant
Bit rate : 128 Kbps
Channel(s) : 1 channel
Sampling rate : 48.0 KHz
Compression mode : Lossy
Stream size : 83.7 MiB (6%)
Alignment : Aligned on interleaves
Interleave, duration : 42 ms (1.00 video frame)
Interleave, preload duration : 504 ms
Writing library : LAME3.98r
Encoding settings : -m m -V 4 -q 2 -lowpass 20.5 -b 128
Audio #2
ID : 2
Format : AC-3
Format/Info : Audio Coding 3
Mode extension : CM (complete main)
Codec ID : 2000
Duration : 1h 31mn
Bit rate mode : Constant
Bit rate : 192 Kbps
Channel(s) : 2 channels
Channel positions : Front: L R
Sampling rate : 48.0 KHz
Bit depth : 16 bits
Compression mode : Lossy
Stream size : 125 MiB (8%)
Alignment : Split accross interleaves
Interleave, duration : 42 ms (1.00 video frame)
Interleave, preload duration : 500 ms
Audio #3
ID : 3
Format : AC-3
Format/Info : Audio Coding 3
Mode extension : CM (complete main)
Codec ID : 2000
Duration : 1h 31mn
Bit rate mode : Constant
Bit rate : 192 Kbps
Channel(s) : 2 channels
Channel positions : Front: L R
Sampling rate : 48.0 KHz
Bit depth : 16 bits
Compression mode : Lossy
Stream size : 125 MiB (8%)
Alignment : Split accross interleaves
Interleave, duration : 42 ms (1.00 video frame)
Interleave, preload duration : 500 ms
Скриншоты:          Время раздачи: 24/7
Вне форума [Профиль] [ЛС]
Показать сообщения:    
Ответить на тему

Текущее время: Сегодня 22:20

Часовой пояс: GMT + 3



Вы не можете начинать темы
Вы не можете отвечать на сообщения
Вы не можете редактировать свои сообщения
Вы не можете удалять свои сообщения
Вы не можете голосовать в опросах
Вы не можете прикреплять файлы к сообщениям
Вы не можете скачивать файлы