Сегодня идет свободное скачивание без начисления Download

Офицер и джентльмен / An Officer And A Gentleman (Тейлор Хекфорд) (Мелодрама, Драма, 1982) HDRip

Ответить на тему
 
Автор
Сообщение

Omen ®

Стаж: 4 года 1 месяц

Сообщений: 194394

Торрент-статистика

Пост 15-Май-2013 21:19

[Цитировать]

Офицер и джентльмен
An Officer And A Gentleman
- Русское название: Офицер и джентльмен
Оригинальное название: An Officer And A Gentleman
Год выпуска: 1982
Жанр: Мелодрама, Драма
Описание фильма:
Зак Мэйо поступает в военное училище, готовящее пилотов морской авиации. Но даже в страшных снах не могло привидеться ему, через какой ад придется пройти, когда за него возьмется жестокий инструктор Фоули.
После трех месяцев невыносимой муштры Зак вполнепрочувствовал, что такое армейская дисциплина, и, несмотря на все предупреждения о коварстве местных девушек, якобы только и мечтающих, как бы заполучить себе в мужья летчика, Зак влюбляется в одну из них. Но, несмотря на все препятствия, герой фильма всеже станет превосходным офицером и обретет настоящую любовь.

Режиссер: Тейлор Хекфорд
Актеры: Ричард Гир, Дебра Уингер, Дэвид Кит, Луис Госсетт-младший, Хэролд Силвестер, Лиза Блаунт
Продолжительность: 02:04:17
Перевод: Профессиональный (многоголосый закадровый), Авторский (одноголосый закадровый) [Юрий Живов], Авторский (одноголосый закадровый) [Алексей Михалёв], Авторский (одноголосый закадровый) [Андрей Гаврилов]

___________________________
Видеокодек: Xvid
Битрейт видео: ~1980 Kbps
Размер кадра: 720x400
Качество видео: HDRip c|BDRip 1080p|
Аудио 1: 48 kHz, AC3 Dolby Digital, 1/0 (C) ch, ~96.00 kbps................. Профессиональный (многоголосый закадровый)
Аудио 2: 48 kHz, AC3 Dolby Digital, 1/0 (C) ch, ~96.00 kbps................. Ю.Живов
Аудио 3: 48 kHz, MPEG Layer 3, 2 ch, ~84.43 kbp................................. А. Михалёв
Аудио 4: 48 kHz, MPEG Layer 3, 2 ch, ~84.46 kbps................................А. Гаврилов
-

MI

General
Complete name : Oficer_i_Gentlemen_HDTVRip.avi
Format : AVI
Format/Info : Audio Video Interleave
Format profile : OpenDML
File size : 2.07 GiB
Duration : 2h 4mn
Overall bit rate mode : Variable
Overall bit rate : 2 380 Kbps
Writing application : VirtualDubMod 1.5.10.2 (build 2542/release)
Writing library : VirtualDubMod build 2542/release
Video
ID : 0
Format : MPEG-4 Visual
Format profile : Advanced [email protected]
Format settings, BVOP : 1
Format settings, QPel : No
Format settings, GMC : No warppoints
Format settings, Matrix : Custom
Codec ID : XVID
Codec ID/Hint : XviD
Duration : 2h 4mn
Bit rate : 1 980 Kbps
Width : 720 pixels
Height : 400 pixels
Display aspect ratio : 16:9
Frame rate : 23.976 fps
Color space : YUV
Chroma subsampling : 4:2:0
Bit depth : 8 bits
Scan type : Progressive
Compression mode : Lossy
Bits/(Pixel*Frame) : 0.287
Stream size : 1.72 GiB (83%)
Writing library : XviD 73
Audio #1
ID : 1
Format : AC-3
Format/Info : Audio Coding 3
Mode extension : CM (complete main)
Format settings, Endianness : Big
Codec ID : 2000
Duration : 2h 4mn
Bit rate mode : Constant
Bit rate : 96.0 Kbps
Channel(s) : 1 channel
Channel positions : Front: C
Sampling rate : 48.0 KHz
Bit depth : 16 bits
Compression mode : Lossy
Delay relative to video : 3s 904ms
Stream size : 85.3 MiB (4%)
Alignment : Split accross interleaves
Interleave, duration : 42 ms (1.00 video frame)
Interleave, preload duration : 500 ms
Audio #2
ID : 2
Format : AC-3
Format/Info : Audio Coding 3
Mode extension : CM (complete main)
Format settings, Endianness : Big
Codec ID : 2000
Duration : 2h 4mn
Bit rate mode : Constant
Bit rate : 96.0 Kbps
Channel(s) : 1 channel
Channel positions : Front: C
Sampling rate : 48.0 KHz
Bit depth : 16 bits
Compression mode : Lossy
Delay relative to video : 3s 904ms
Stream size : 85.3 MiB (4%)
Alignment : Split accross interleaves
Interleave, duration : 42 ms (1.00 video frame)
Interleave, preload duration : 500 ms
Audio #3
ID : 3
Format : MPEG Audio
Format version : Version 1
Format profile : Layer 3
Mode : Joint stereo
Mode extension : MS Stereo
Codec ID : 55
Codec ID/Hint : MP3
Duration : 2h 4mn
Bit rate mode : Variable
Bit rate : 84.4 Kbps
Nominal bit rate : 128 Kbps
Channel(s) : 2 channels
Sampling rate : 48.0 KHz
Compression mode : Lossy
Delay relative to video : 3s 888ms
Stream size : 75.2 MiB (4%)
Alignment : Split accross interleaves
Interleave, duration : 24 ms (0.58 video frame)
Interleave, preload duration : 2292 ms
Writing library : LAME3.97
Encoding settings : -m j -V 4 -q 2 -lowpass 17 --abr 128
Audio #4
ID : 4
Format : MPEG Audio
Format version : Version 1
Format profile : Layer 3
Mode : Joint stereo
Mode extension : MS Stereo
Codec ID : 55
Codec ID/Hint : MP3
Duration : 2h 4mn
Bit rate mode : Variable
Bit rate : 84.4 Kbps
Nominal bit rate : 128 Kbps
Channel(s) : 2 channels
Sampling rate : 48.0 KHz
Compression mode : Lossy
Delay relative to video : 3s 888ms
Stream size : 75.2 MiB (4%)
Alignment : Split accross interleaves
Interleave, duration : 24 ms (0.58 video frame)
Interleave, preload duration : 2291 ms
Writing library : LAME3.97
Encoding settings : -m j -V 4 -q 2 -lowpass 17 --abr 128
-        
       
Вне форума [Профиль] [ЛС]
Показать сообщения:    
Ответить на тему

Текущее время: Сегодня 16:43

Часовой пояс: GMT + 3



Вы не можете начинать темы
Вы не можете отвечать на сообщения
Вы не можете редактировать свои сообщения
Вы не можете удалять свои сообщения
Вы не можете голосовать в опросах
Вы не можете прикреплять файлы к сообщениям
Вы не можете скачивать файлы