Today is a free download without charge Download

Eliane Elias - 4 альбома (1991-2004) [FLAC|Lossless]<Jazz Piano, Vocal>

Reply to topic
 
Author
Message

UndegraundMen ®

Longevity: 8 years 7 months

Posts: 25145

Торрент-статистика

Post 16-May-2013 00:31

[Quote]

Eliane Elias - 4 альбома (1991-2004)- Год: 1991-2004
Жанр: Jazz Piano, Vocal
Продолжительность: 03:58:32
Кодек: FLAC
Битрейт: Lossless
Источник: Web
Элиан Элиас (Eliane Elias) род. 19.03.1960, Сан-Паулу, Бразилия - джазовая пианистка, вокалистка и композитор, исполнительница на электронных клавишных инструментах. Элиан Элиас родом из Бразилии, играет на фортепиано, поет, сочиняет музыку и делает аранжировки, балансируя на стыке двух культур - американской и бразильской. Она, достигнув совершеннолетия, отправилась в Америку, чтобы добиться мирового признания. С семи лет начала учиться играть на фортепиано. Стала известной, выступив в 80-е годы с группой Steps Ahead.

1991. A Long Story

Издатель: Manhattan / Capitol Record {CDP 795 476 2}
Страна изготовитель: Canada
Формат: image+cue
Трек лист:
01. Back In Time [05:12]
02. A Long Story [05:08]
03. Horizonte [05:05]
04. Just Kidding [03:49]
05. Life Goes On [05:46]
06. The Nile [06:28]
07. Get It [04:21]
08. Just For You [04:56]
09. Karamuru [06:41]
10. Let Me Go [02:21]
Продолжительность: 00:49:46

Отчёт ЕАС&#58;

Код:
EAC extraction logfile from 15. September 2007, 16:10 for CD
Eliane Elias / A Long Story
Used drive  : HL-DT-STRW/DVD GCC-4520B   Adapter: 0  ID: 1
Read mode   : Secure with NO C2, accurate stream, disable cache
Read offset correction : 6
Overread into Lead-In and Lead-Out : No
Used output format : Internal WAV Routines
                     44.100 Hz; 16 Bit; Stereo
Other options      :
    Fill up missing offset samples with silence : Yes
    Delete leading and trailing silent blocks : No
    Installed external ASPI interface
Range status and errors
Selected range
     Filename D:\INCOMING\_RELEASES\Eliane Elias - A Long Story [MANHATTAN][1991]\Eliane Elias - A Long Story.wav
     Peak level 100.0 %
     Range quality 100.0 %
     CRC 38BCB336
     Copy OK
No errors occured
End of status report

Отчёт auCDtect Task manager&#58;

Код:
-----------------------
DON'T MODIFY THIS FILE
-----------------------
PERFORMER: auCDtect Task Manager, ver. 1.5.1RC6 build 1.5.1.7
Copyright (c) 2008-2010 y-soft. All rights reserved
http://y-soft.org
ANALYZER: auCDtect: CD records authenticity detector, version 0.8.2
Copyright (c) 2004 Oleg Berngardt. All rights reserved.
Copyright (c) 2004 Alexander Djourik. All rights reserved.
FILE: Eliane Elias - A Long Story.flac
  Size: 310495220 Hash: D750DB0704914BA499C24C37F7B06B40 Accuracy: -m0
  Conclusion: CDDA 99%
  Signature: 47AF3E05F6CFC42634876094A49BFD0B532AC1EA

2002. Eliane Elias Plays Live

Издатель: Blue Note {509999 08278 2 2}
Страна изготовитель: USA
Формат: track+cue
Трек лист:
01. Just Friends [10:30]
02. Bowing To Bud [10:49]
03. If You Could See Me Now [05:37]
04. Have You Met Miss Jones [10:47]
05. Embraceable You / But Not For Me / Jazz Influence / Who Knows [06:37]
06. Peggy's Blue Skylight [08:01]
07. Desafinado [18:12]
Продолжительность: 01:10:33

Отчёт ЕАС&#58;

Код:
Exact Audio Copy V1.0 beta 1 from 15. November 2010
EAC extraction logfile from 28. October 2011, 15:20
Eliane Elias / Plays Live {Blue Note 509999 08278 2 2}
Used drive  : ASUS    DRW-1608P3S   Adapter: 0  ID: 1
Read mode               : Secure
Utilize accurate stream : Yes
Defeat audio cache      : Yes
Make use of C2 pointers : No
Read offset correction                      : 48
Overread into Lead-In and Lead-Out          : No
Fill up missing offset samples with silence : Yes
Delete leading and trailing silent blocks   : No
Null samples used in CRC calculations       : Yes
Used interface                              : Native Win32 interface for Win NT & 2000
Gap handling                                : Appended to previous track
Used output format : Internal WAV Routines
Sample format      : 44.100 Hz; 16 Bit; Stereo
TOC of the extracted CD
     Track |   Start  |  Length  | Start sector | End sector
    ---------------------------------------------------------
        1  |  0:00.00 | 10:30.20 |         0    |    47269
        2  | 10:30.20 | 10:49.20 |     47270    |    95964
        3  | 21:19.40 |  5:36.65 |     95965    |   121229
        4  | 26:56.30 | 10:47.05 |    121230    |   169759
        5  | 37:43.35 |  6:37.25 |    169760    |   199559
        6  | 44:20.60 |  8:01.35 |    199560    |   235669
        7  | 52:22.20 | 18:11.59 |    235670    |   317553
Track  1
     Filename H:\[email protected] Rips\Eliane Elias Plays Live {Blue Note}\01 - Just Friends.wav
     Pre-gap length  0:00:02.00
     Peak level 94.4 %
     Extraction speed 5.0 X
     Track quality 99.9 %
     Test CRC 0BAD6B64
     Copy CRC 0BAD6B64
     Accurately ripped (confidence 5)  [09BD102A]
     Copy OK
Track  2
     Filename H:\[email protected] Rips\Eliane Elias Plays Live {Blue Note}\02 - Bowing to Bud.wav
     Peak level 94.4 %
     Extraction speed 6.2 X
     Track quality 100.0 %
     Test CRC 374266FF
     Copy CRC 374266FF
     Accurately ripped (confidence 5)  [C31C2F97]
     Copy OK
Track  3
     Filename H:\[email protected] Rips\Eliane Elias Plays Live {Blue Note}\03 - If You Could See Me Now.wav
     Peak level 94.4 %
     Extraction speed 6.6 X
     Track quality 100.0 %
     Test CRC 6EFC6ED3
     Copy CRC 6EFC6ED3
     Accurately ripped (confidence 5)  [04E6771D]
     Copy OK
Track  4
     Filename H:\[email protected] Rips\Eliane Elias Plays Live {Blue Note}\04 - Have You Met Miss Jones.wav
     Peak level 94.4 %
     Extraction speed 7.6 X
     Track quality 100.0 %
     Test CRC D5A52E0C
     Copy CRC D5A52E0C
     Accurately ripped (confidence 5)  [95D00455]
     Copy OK
Track  5
     Filename H:\[email protected] Rips\Eliane Elias Plays Live {Blue Note}\05 - Embraceable You , But Not for Me , Jazz Influence , Who Knows.wav
     Peak level 94.4 %
     Extraction speed 8.0 X
     Track quality 100.0 %
     Test CRC 65190AB7
     Copy CRC 65190AB7
     Accurately ripped (confidence 5)  [D6B7999D]
     Copy OK
Track  6
     Filename H:\[email protected] Rips\Eliane Elias Plays Live {Blue Note}\06 - Peggy's Blue Skylight.wav
     Peak level 94.4 %
     Extraction speed 8.5 X
     Track quality 100.0 %
     Test CRC 1AD830F0
     Copy CRC 1AD830F0
     Accurately ripped (confidence 5)  [1034221D]
     Copy OK
Track  7
     Filename H:\[email protected] Rips\Eliane Elias Plays Live {Blue Note}\07 - Desafinado.wav
     Peak level 94.4 %
     Extraction speed 8.6 X
     Track quality 100.0 %
     Test CRC 74B0F260
     Copy CRC 74B0F260
     Accurately ripped (confidence 5)  [F4CA91AA]
     Copy OK
All tracks accurately ripped
No errors occurred
End of status report
==== Log checksum 7E44A2FE30DF900495A4646DCF45C57C2F38096AF2DA530FE6340707884C6853 ====

Отчёт auCDtect Task manager&#58;

Код:
-----------------------
DON'T MODIFY THIS FILE
-----------------------
PERFORMER: auCDtect Task Manager, ver. 1.5.1RC6 build 1.5.1.7
Copyright (c) 2008-2010 y-soft. All rights reserved
http://y-soft.org
ANALYZER: auCDtect: CD records authenticity detector, version 0.8.2
Copyright (c) 2004 Oleg Berngardt. All rights reserved.
Copyright (c) 2004 Alexander Djourik. All rights reserved.
FILE: 07. Desafinado.flac
  Size: 102140379 Hash: A2BC20ED6EB9DDE385477E690F302E4E Accuracy: -m0
  Conclusion: CDDA 100%
  Signature: B59BB743420B0E6867FDB9A88DA0D4EAAD37D351
FILE: 06. Peggy's Blue Skylight.flac
  Size: 50867162 Hash: A9867DB8999B174CF9E5F7D6CF9185EA Accuracy: -m0
  Conclusion: CDDA 100%
  Signature: 3BA534C0FDEE084D2A5A97C4B4C050C8E558DF61
FILE: 05. Embraceable You....flac
  Size: 31790840 Hash: C743EA729F6A13A66C44ABF4C5234D2B Accuracy: -m0
  Conclusion: CDDA 99%
  Signature: 5835431AF0BE274A63E3AC384B0A06BA373CBD90
FILE: 04. Have You Met Miss Jones.flac
  Size: 72648650 Hash: 0EC760961F03B1910265A8DF593DA505 Accuracy: -m0
  Conclusion: CDDA 100%
  Signature: 36DD4D15186FB5761F013ABD06A1C2D58D1DD326
FILE: 03. If You Could See Me Now.flac
  Size: 31901297 Hash: A03D65625028555FB280D77C6650D5AB Accuracy: -m0
  Conclusion: CDDA 100%
  Signature: 2230648D0CE807DAB98785186D6ABCE81AD1487B
FILE: 02. Bowing To Bud.flac
  Size: 68971820 Hash: 64E47C68608567F6899D967CFB243E5D Accuracy: -m0
  Conclusion: CDDA 100%
  Signature: 9151745349F29BCBF6CE6BE507FE47EE218CCB36
FILE: 01. Just Friends.flac
  Size: 68641950 Hash: 923B3DF94F9A64F141F4846A8CF792C5 Accuracy: -m0
  Conclusion: CDDA 100%
  Signature: 264F7F67C2447B7F4C258E4C6C9C76ABB5B8E3E9

2002. Kissed By Nature

Издатель: RCA Victor & BMG {09026 63914 2}
Страна изготовитель: EU
Формат: track+cue
Трек лист:
01. Kissed By Nature [05:27]
02. A Volta [05:49]
03. Manhatten [04:21]
04. Apareceu [05:19]
05. Perere [04:51]
06. Where Did You Go [04:33]
07. Balance Djavan Medley [04:58]
08. Djavan Medley [05:26]
09. October [05:33]
10. September [04:34]
11. Luar [04:40]
12. Kissed By Nature [04:29]
13. Balance [04:45]
Продолжительность: 01:04:45

Отчёт ЕАС&#58;

Код:
EAC extraction logfile from 9. June 2006, 14:57 for CD
Eliane Elias / Kissed By Nature
Used drive  : SAMSUNG CD-ROM SC-148A   Adapter: 0  ID: 1
Read mode   : Secure with NO C2, accurate stream, disable cache
Read offset correction : 12
Overread into Lead-In and Lead-Out : No
Used output format : C:\Program Files\Exact Audio Copy\flac.exe   (User Defined Encoder)
                     192 kBit/s
                     Additional command line options : -V -8 -T "artist=%a" -T "title=%t" -T "album=%g" -T "date=%y" -T "tracknumber=%n" -T "genre=%m" %s
Other options      :
    Fill up missing offset samples with silence : Yes
    Delete leading and trailing silent blocks : No
    Native Win32 interface for Win NT & 2000
Track  1
     Filename C:\eliane elias - kissed by nature\01 - Kissed By Nature.wav
     Pre-gap length  0:00:02.00
     Peak level 99.8 %
     Track quality 100.0 %
     Test CRC 7B5245B5
     Copy CRC 7B5245B5
     Copy OK
Track  2
     Filename C:\eliane elias - kissed by nature\02 - A Volta.wav
     Peak level 99.8 %
     Track quality 100.0 %
     Test CRC 97C7D865
     Copy CRC 97C7D865
     Copy OK
Track  3
     Filename C:\eliane elias - kissed by nature\03 - Manhattan.wav
     Peak level 99.8 %
     Track quality 99.9 %
     Test CRC 8A8ECB28
     Copy CRC 8A8ECB28
     Copy OK
Track  4
     Filename C:\eliane elias - kissed by nature\04 - Apareceu.wav
     Pre-gap length  0:00:01.56
     Peak level 99.8 %
     Track quality 100.0 %
     Test CRC 55410B4B
     Copy CRC 55410B4B
     Copy OK
Track  5
     Filename C:\eliane elias - kissed by nature\05 - Perere.wav
     Peak level 99.8 %
     Track quality 100.0 %
     Test CRC ECCE396C
     Copy CRC ECCE396C
     Copy OK
Track  6
     Filename C:\eliane elias - kissed by nature\06 - Where Did You Go.wav
     Peak level 90.8 %
     Track quality 100.0 %
     Test CRC C256CB06
     Copy CRC C256CB06
     Copy OK
Track  7
     Filename C:\eliane elias - kissed by nature\07 - Balance.wav
     Peak level 99.8 %
     Track quality 100.0 %
     Test CRC 9E365BF8
     Copy CRC 9E365BF8
     Copy OK
Track  8
     Filename C:\eliane elias - kissed by nature\08 - Djavan Medley.wav
     Pre-gap length  0:00:01.86
     Peak level 99.8 %
     Track quality 99.9 %
     Test CRC FB1EE1F0
     Copy CRC FB1EE1F0
     Copy OK
Track  9
     Filename C:\eliane elias - kissed by nature\09 - October.wav
     Pre-gap length  0:00:01.46
     Peak level 99.8 %
     Track quality 100.0 %
     Test CRC 4A594B37
     Copy CRC 4A594B37
     Copy OK
Track 10
     Filename C:\eliane elias - kissed by nature\10 - September.wav
     Pre-gap length  0:00:02.36
     Peak level 99.8 %
     Track quality 100.0 %
     Test CRC B50B60EA
     Copy CRC B50B60EA
     Copy OK
Track 11
     Filename C:\eliane elias - kissed by nature\11 - Luar.wav
     Pre-gap length  0:00:02.13
     Peak level 99.8 %
     Track quality 100.0 %
     Test CRC BC041A15
     Copy CRC BC041A15
     Copy OK
Track 12
     Filename C:\eliane elias - kissed by nature\12 - Kissed By Nature (remix).wav
     Pre-gap length  0:00:04.09
     Peak level 99.8 %
     Track quality 100.0 %
     Test CRC DA1BD5E8
     Copy CRC DA1BD5E8
     Copy OK
Track 13
     Filename C:\eliane elias - kissed by nature\13 - Balance (remix).wav
     Pre-gap length  0:00:02.20
     Peak level 99.8 %
     Track quality 100.0 %
     Test CRC F9B5DAA3
     Copy CRC F9B5DAA3
     Copy OK
No errors occured
End of status report

Отчёт auCDtect Task manager&#58;

Код:
-----------------------
DON'T MODIFY THIS FILE
-----------------------
PERFORMER: auCDtect Task Manager, ver. 1.5.1RC6 build 1.5.1.7
Copyright (c) 2008-2010 y-soft. All rights reserved
http://y-soft.org
ANALYZER: auCDtect: CD records authenticity detector, version 0.8.2
Copyright (c) 2004 Oleg Berngardt. All rights reserved.
Copyright (c) 2004 Alexander Djourik. All rights reserved.
FILE: 12. Eliane Elias - Balance.flac
  Size: 33562052 Hash: EAEE70050723D4479C35121A93DA1CC0 Accuracy: -m0
  Conclusion: CDDA 99%
  Signature: D0CEC22591F656B24D115DAD374FBD6D64AEEA0F
FILE: 11. Eliane Elias - Kissed By Nature.flac
  Size: 26526228 Hash: 5B94237E58AE32B034E3CF8F8604DADE Accuracy: -m0
  Conclusion: CDDA 100%
  Signature: E64C250EC82F4FEEB5F3EA113309B644D448FB51
FILE: 10. Eliane Elias - Luar.flac
  Size: 31394105 Hash: D53A213954849CB2A91E8A6035BDB294 Accuracy: -m0
  Conclusion: CDDA 100%
  Signature: 040C3E97B094AD2A9E6303771281E3B2C85B45B2
FILE: 09. Eliane Elias - September.flac
  Size: 28374404 Hash: 03614C66EBD6528700B987DA01DD843E Accuracy: -m0
  Conclusion: CDDA 100%
  Signature: F19E2E2095BC17B9D889273F23546AB2D564921E
FILE: 08. Eliane Elias - October.flac
  Size: 32768037 Hash: FE473DC14B9377289BE720A57B394494 Accuracy: -m0
  Conclusion: CDDA 100%
  Signature: C2D64918E95227D0AA504EECDDCFBE2046D61CCA
FILE: 08. Eliane Elias - Djavan Medley.flac
  Size: 34409418 Hash: D659DF0C0B79F581B196790FB8DD865B Accuracy: -m0
  Conclusion: CDDA 99%
  Signature: 488D1B3B02E935D7552CBBE7DB8DEE2FD12D8B46
FILE: 07. Eliane Elias - Balance Djavan Medley.flac
  Size: 29522207 Hash: 8D7736857309DD64F043AFE182C701C5 Accuracy: -m0
  Conclusion: CDDA 100%
  Signature: E302A5D1161F513BB2636DE91A9BB8D901931434
FILE: 06. Eliane Elias - Where Did You Go.flac
  Size: 22999984 Hash: BE5BEB6747A6D32731760075C45F43F5 Accuracy: -m0
  Conclusion: CDDA 100%
  Signature: B78761394B87CF9941B0D720F9ABB4AE089C4E57
FILE: 05. Eliane Elias - Perere.flac
  Size: 33112931 Hash: F832E4201C21B09A5B548AB3CE52A092 Accuracy: -m0
  Conclusion: CDDA 100%
  Signature: 96239C71723662100692EC7929AD1698E82E4A3F
FILE: 04. Eliane Elias - Apareceu.flac
  Size: 31974702 Hash: 8E7A87D198E67A10B0FF019BEEB34806 Accuracy: -m0
  Conclusion: CDDA 99%
  Signature: 395F0559DFA2D51929150FCECB6AF92F1847093D
FILE: 03. Eliane Elias - Manhatten.flac
  Size: 29232256 Hash: 7E482C5AAE94CB268F762258F38E7384 Accuracy: -m0
  Conclusion: CDDA 100%
  Signature: C6DA6E2836C2E83DCF3FF477F7BCAA9A92961AFD
FILE: 02. Eliane Elias - A Volta.flac
  Size: 37535385 Hash: ED88BB05E6B97A6E22B5FF81A69C8F6D Accuracy: -m0
  Conclusion: CDDA 100%
  Signature: AC4DE9DA85B6DC2339C590CBCF1D3DBE447F78A6
FILE: 01. Eliane Elias - Kissed By Nature.flac
  Size: 35031174 Hash: A37F6F57ED1F6B56F5EED6A00DCEDA86 Accuracy: -m0
  Conclusion: CDDA 100%
  Signature: 989EC778EDC7B6E55953A272CE6763601EC2D16C

2004. Dreamer

Издатель: BMG Music {82876583352}
Страна изготовитель: Brasil
Формат: trac+cue
Трек лист:
01. Call Me [04:12]
02. Baubles, Bangles And Beads [05:00]
03. Photograph (Fotografia) [03:47]
04. Movin' Me On [04:11]
05. So Nice (Samba De Verao) [05:15]
06. That's All [05:42]
07. Tangerine [06:43]
08. Dreamer (Vivo Sonhando) [03:34]
09. Time Alone [06:42]
10. Doralice [03:00]
11. A House Is Not A Home [05:22]
Продолжительность: 00:53:28

Отчёт ЕАС&#58;

Код:
EAC extraction logfile from 9. June 2006, 7:25 for CD
Eliane Elias / Dreamer
Used drive  : SAMSUNG CD-ROM SC-148A   Adapter: 0  ID: 1
Read mode   : Secure with NO C2, accurate stream, disable cache
Read offset correction : 12
Overread into Lead-In and Lead-Out : No
Used output format : C:\Program Files\Exact Audio Copy\flac.exe   (User Defined Encoder)
                     192 kBit/s
                     Additional command line options : -V -8 -T "artist=%a" -T "title=%t" -T "album=%g" -T "date=%y" -T "tracknumber=%n" -T "genre=%m" %s
Other options      :
    Fill up missing offset samples with silence : Yes
    Delete leading and trailing silent blocks : No
    Native Win32 interface for Win NT & 2000
Track  1
     Filename C:\eliane elias - dreamer\01 - Call Me.wav
     Pre-gap length  0:00:02.00
     Peak level 99.8 %
     Track quality 100.0 %
     Test CRC 4215B975
     Copy CRC 4215B975
     Copy OK
Track  2
     Filename C:\eliane elias - dreamer\02 - Baubles, Bangles and Beads.wav
     Pre-gap length  0:00:01.77
     Peak level 99.8 %
     Track quality 100.0 %
     Test CRC DAFE2EAB
     Copy CRC DAFE2EAB
     Copy OK
Track  3
     Filename C:\eliane elias - dreamer\03 - Photograph (Fotografia).wav
     Peak level 99.8 %
     Track quality 100.0 %
     Test CRC DA3264DB
     Copy CRC DA3264DB
     Copy OK
Track  4
     Filename C:\eliane elias - dreamer\04 - Movin' Me On.wav
     Pre-gap length  0:00:01.86
     Peak level 99.8 %
     Track quality 100.0 %
     Test CRC 07968CA5
     Copy CRC 07968CA5
     Copy OK
Track  5
     Filename C:\eliane elias - dreamer\05 - So Nice (Samba de Verao).wav
     Pre-gap length  0:00:01.69
     Peak level 99.8 %
     Track quality 99.9 %
     Test CRC 84ACDDFC
     Copy CRC 84ACDDFC
     Copy OK
Track  6
     Filename C:\eliane elias - dreamer\06 - That's All.wav
     Pre-gap length  0:00:01.66
     Peak level 92.2 %
     Track quality 100.0 %
     Test CRC C901E624
     Copy CRC C901E624
     Copy OK
Track  7
     Filename C:\eliane elias - dreamer\07 - Tangerine.wav
     Pre-gap length  0:00:02.14
     Peak level 99.8 %
     Track quality 100.0 %
     Test CRC 3E756890
     Copy CRC 3E756890
     Copy OK
Track  8
     Filename C:\eliane elias - dreamer\08 - Dreamer (Vivo Sonhando).wav
     Pre-gap length  0:00:00.74
     Peak level 99.8 %
     Track quality 100.0 %
     Test CRC 3D17E4C5
     Copy CRC 3D17E4C5
     Copy OK
Track  9
     Filename C:\eliane elias - dreamer\09 - Time Alone.wav
     Pre-gap length  0:00:01.73
     Peak level 99.8 %
     Track quality 100.0 %
     Test CRC 941508C3
     Copy CRC 941508C3
     Copy OK
Track 10
     Filename C:\eliane elias - dreamer\10 - Doralice.wav
     Pre-gap length  0:00:03.58
     Peak level 99.8 %
     Track quality 99.9 %
     Test CRC 17F02D6D
     Copy CRC 17F02D6D
     Copy OK
Track 11
     Filename C:\eliane elias - dreamer\11 - A House Is Not A Home.wav
     Pre-gap length  0:00:02.00
     Peak level 99.8 %
     Track quality 99.9 %
     Test CRC F60A7CE9
     Copy CRC F60A7CE9
     Copy OK
No errors occured
End of status report

Отчёт auCDtect Task manager&#58;

Код:
-----------------------
DON'T MODIFY THIS FILE
-----------------------
PERFORMER: auCDtect Task Manager, ver. 1.5.1RC6 build 1.5.1.7
Copyright (c) 2008-2010 y-soft. All rights reserved
http://y-soft.org
ANALYZER: auCDtect: CD records authenticity detector, version 0.8.2
Copyright (c) 2004 Oleg Berngardt. All rights reserved.
Copyright (c) 2004 Alexander Djourik. All rights reserved.
FILE: 11. Eliane Elias - A House Is Not A Home.flac
  Size: 25331687 Hash: 2C1A5B46F43823AD79DCC56108557375 Accuracy: -m0
  Conclusion: CDDA 100%
  Signature: AC5AFBE602D3D7610E90FB3551A0575BB160D045
FILE: 10. Eliane Elias - Doralice.flac
  Size: 16206230 Hash: 90F087133FBDE4C1E541223508CECA84 Accuracy: -m0
  Conclusion: CDDA 100%
  Signature: B1BA46C2D4906900710755BA2DFFDCB0EE9C36F8
FILE: 09. Eliane Elias - Time Alone.flac
  Size: 35444674 Hash: 6D05421EB467A19DE2A8A2488ABEE600 Accuracy: -m0
  Conclusion: CDDA 99%
  Signature: B3485E254C3AF2A2FD976E2BB112D67F2F449A2D
FILE: 08. Eliane Elias - Dreamer (Vivo Sonhando).flac
  Size: 22588960 Hash: 8166814EFDDEB0BAA8B4076E5461F966 Accuracy: -m0
  Conclusion: CDDA 100%
  Signature: C548F8FD0837116786134E72C11DE11F8B33C48B
FILE: 07. Eliane Elias - Tangerine.flac
  Size: 39371100 Hash: C339E9174060F8ECD784EA763B46B524 Accuracy: -m0
  Conclusion: CDDA 100%
  Signature: 8D0DEB9F62DA061F548E709B6B4262939213BA15
FILE: 06. Eliane Elias - That's All.flac
  Size: 29698403 Hash: 720E502E5204279BCF5696007A514C90 Accuracy: -m0
  Conclusion: CDDA 100%
  Signature: 50B96C44F4ECA6F5EE00134ECA72CFB22E2EDB77
FILE: 05. Eliane Elias - So Nice (Samba De Verao).flac
  Size: 31445632 Hash: D5448D613B9B6538FBAD7561DC1C785A Accuracy: -m0
  Conclusion: CDDA 100%
  Signature: 3DC5E29D3C53A48D61B244DC6BC230B266DA60F7
FILE: 04. Eliane Elias - Movin' Me On.flac
  Size: 26758286 Hash: 2E0DDF44FF900CD116FC06A1BA9A6E5C Accuracy: -m0
  Conclusion: CDDA 100%
  Signature: 922EB4F7DB4F628A27484B94DCA1EACEA632F0EF
FILE: 03. Eliane Elias - Photograph (Fotografia).flac
  Size: 23216334 Hash: 14BAF6FE4159F344BC69D8952BFB8A40 Accuracy: -m0
  Conclusion: CDDA 100%
  Signature: 472194C70EF16A2EF13EA78A2CBE0C2F3860564F
FILE: 02. Eliane Elias - Baubles, Bangles And Beads.flac
  Size: 30492202 Hash: 6A8CA7A2E11690E8F3244AE521D87296 Accuracy: -m0
  Conclusion: CDDA 100%
  Signature: EB557649FC549EA9F9DB289821E64765393AB67B
FILE: 01. Eliane Elias - Call Me.flac
  Size: 25382860 Hash: 184EBACEC3B14DA5F7FFBEA140E0542F Accuracy: -m0
  Conclusion: CDDA 100%
  Signature: 6280D48D203A8D397552C18A0EC35E1D306BE104
Время раздачи: 24/7
Other forum [Profile] [PM]

Dracula

Longevity: 7 years 11 months

Posts: 11008

Торрент-статистика

Post 16-May-2013 06:12 (after 5 hours)

Топик был перенесен из форума Jazz в форум World Music from other genres


p2000s
 
Display posts from previous:    
Reply to topic

The time now is: Today 07:43

All times are GMT + 3 Hours



You cannot post new topics in this forum
You cannot reply to topics in this forum
You cannot edit your posts in this forum
You cannot delete your posts in this forum
You cannot vote in polls in this forum
You cannot attach files in this forum
You cannot download files in this forum