Today is a free download without charge Download

Duo Jalal - A Different World (2011) [FLAC|Lossless]<Contemporary Classical, Ethnic>

Reply to topic
 
Author
Message

UndegraundMen ®

Longevity: 7 years 8 months

Posts: 25145

Торрент-статистика

Post 16-May-2013 05:24

[Quote]

Duo Jalal - A Different World (2011)- Год: 2011
Жанр: Contemporary Classical, Ethnic
Издатель: Innova {793}
Страна изготовитель: USA
Продолжительность: 01:07:01
Кодек: FLAC | Битрейт: Lossless
Источник: Web
Трек лист:
01. David Krakauer: Klezmer a la Bechet [04:48]
02. Derek Bermel: Thracian Sketches [08:57]
03. Jubb Jannin: Jubb Jannin (Sheronick) [07:03]
04. Enzo Rao Camemi: A Different World (Camemi) [05:04]
Kenji Bunch: Lost and Found
05. No. 1. Lost in Time [03:54]
06. No. 2. Found Objects [05:00]
07. No. 3. Lost in Space [04:00]
08. No. 4. Lost and Found [04:52]
Glen Velez: Homage for Frame Drum and Viola
09. Movement I (Velez) [03:35]
10. Movement II (Velez) [04:02]
11. Philip Glass: Duo for Solo Viola and Percussion [05:26]
John Patitucci: Scenes for Viola and Percussion
12. I. Tempo Rubato - Tempo Nouvo [02:58]
13. II. Tempo Moderato [03:45]
14. III. Rubato - Andante [03:37]

Kathryn Lockwood - viola
Yousif Sheronick - percussion

Отчёт ЕАС&#58;

Код:
Exact Audio Copy V0.99 prebeta 4 from 23. January 2008
EAC extraction logfile from 31. July 2011, 0:14
Duo Jalal / A Different World
Used drive  : QSI     CDRW/DVD SBW242U   Adapter: 1  ID: 0
Read mode : Fast
Read offset correction                      : 6
Overread into Lead-In and Lead-Out          : No
Fill up missing offset samples with silence : Yes
Delete leading and trailing silent blocks   : No
Null samples used in CRC calculations       : Yes
Used interface                              : Installed external ASPI interface
Used output format              : User Defined Encoder
Selected bitrate                : 768 kBit/s
Quality                         : High
Add ID3 tag                     : No
Command line compressor         : C:\Program Files\Exact Audio Copy\Flac\flac.exe
Additional command line options : -8 -V %s -o %d
TOC of the extracted CD
     Track |   Start  |  Length  | Start sector | End sector
    ---------------------------------------------------------
        1  |  0:00.00 |  4:48.17 |         0    |    21616
        2  |  4:48.17 |  8:57.30 |     21617    |    61921
        3  | 13:45.47 |  7:02.53 |     61922    |    93624
        4  | 20:48.25 |  5:03.41 |     93625    |   116390
        5  | 25:51.66 |  3:54.07 |    116391    |   133947
        6  | 29:45.73 |  5:00.25 |    133948    |   156472
        7  | 34:46.23 |  4:00.09 |    156473    |   174481
        8  | 38:46.32 |  4:51.45 |    174482    |   196351
        9  | 43:38.02 |  3:35.27 |    196352    |   212503
       10  | 47:13.29 |  4:02.14 |    212504    |   230667
       11  | 51:15.43 |  5:26.04 |    230668    |   255121
       12  | 56:41.47 |  2:57.44 |    255122    |   268440
       13  | 59:39.16 |  3:44.50 |    268441    |   285290
       14  | 63:23.66 |  3:37.24 |    285291    |   301589
Range status and errors
Selected range
     Filename G:\Duo Jalal - A Different World\Duo Jalal - A Different World.wav
     Peak level 98.3 %
     Test CRC DB5D638D
     Copy CRC DB5D638D
     Copy OK
No errors occurred
AccurateRip summary
Track  1  cannot be verified as accurate (confidence 1)  [7A00A890], AccurateRip returned [6F1DFFC2]
Track  2  cannot be verified as accurate (confidence 1)  [4D11C6B4], AccurateRip returned [F0B3D857]
Track  3  cannot be verified as accurate (confidence 1)  [C2EE8666], AccurateRip returned [7D97873D]
Track  4  cannot be verified as accurate (confidence 1)  [BA202442], AccurateRip returned [7FF342B9]
Track  5  cannot be verified as accurate (confidence 1)  [8697DBE3], AccurateRip returned [BF7C26D2]
Track  6  cannot be verified as accurate (confidence 1)  [855166A6], AccurateRip returned [BF3DC5EA]
Track  7  cannot be verified as accurate (confidence 1)  [2FB5D5D9], AccurateRip returned [1EAFEE4A]
Track  8  cannot be verified as accurate (confidence 1)  [8A680569], AccurateRip returned [F66EDB89]
Track  9  cannot be verified as accurate (confidence 1)  [32E10D88], AccurateRip returned [863D3DD6]
Track 10  cannot be verified as accurate (confidence 1)  [74B53DC7], AccurateRip returned [85566E62]
Track 11  cannot be verified as accurate (confidence 1)  [4F3D3D7F], AccurateRip returned [9378DD4D]
Track 12  cannot be verified as accurate (confidence 1)  [6D55338F], AccurateRip returned [566C8DEC]
Track 13  cannot be verified as accurate (confidence 1)  [D71E786E], AccurateRip returned [408A0BF3]
Track 14  cannot be verified as accurate (confidence 1)  [00C7C401], AccurateRip returned [F72E3B4D]
No tracks could be verified as accurate
You may have a different pressing from the one(s) in the database
End of status report

Отчёт auCDtect Task manager&#58;

Код:
-----------------------
DON'T MODIFY THIS FILE
-----------------------
PERFORMER: auCDtect Task Manager, ver. 1.5.1RC6 build 1.5.1.7
Copyright (c) 2008-2010 y-soft. All rights reserved
http://y-soft.org
ANALYZER: auCDtect: CD records authenticity detector, version 0.8.2
Copyright (c) 2004 Oleg Berngardt. All rights reserved.
Copyright (c) 2004 Alexander Djourik. All rights reserved.
FILE: Duo Jalal - A Different World.flac
  Size: 327039141 Hash: E674BEE1CDE4A3E8802BEAC24A8DFC1A Accuracy: -m0
  Conclusion: CDDA 100%
  Signature: 2632319CC9484D1B4AB72B61ED584DC31DED0F24
Время раздачи: 24/7
Other forum [Profile] [PM]

Dracula

Longevity: 7 years

Posts: 11398

Торрент-статистика

Post 16-May-2013 13:34 (after 8 hours)

Топик был перенесен из форума Классика отечественных фильмов в форум Ethnic


kogesan
 
Display posts from previous:    
Reply to topic

The time now is: Today 16:09

All times are GMT + 3 Hours



You cannot post new topics in this forum
You cannot reply to topics in this forum
You cannot edit your posts in this forum
You cannot delete your posts in this forum
You cannot vote in polls in this forum
You cannot attach files in this forum
You cannot download files in this forum