Сегодня идет свободное скачивание без начисления Download

Коллекция фильмов об индейцах с участием Гойко Митича (1965-1983) DVDRip

Ответить на тему
 
Автор
Сообщение

Omen ®

Стаж: 4 года 1 месяц

Сообщений: 194382

Торрент-статистика

Пост 31-Июл-2011 13:43

[Цитировать]

Гойко Митич (1965-1983) DVDRip Gojko Mitic (1965-1983)- Дата рождения: 13 июня, 1940
Mесто рождения: Лесковас, Югославия
Карьера: Актер, Сценарист
Жанры: Вестерн. Драма. Приключения
Всего фильмов: 59
Первый фильм: 1963
Последний фильм: 2008
Биография создания проэкта из 12 фильмов:В 1965 году, сразу же после пленума ЦК СЕПГ состоялось совещание, на которое были приглашены все киноруководство ГДР. На совещании обсуждался вопрос о проекте по созданию отечественных картин, которые смогли бы противостоять всё большему влиянию западногерманских вестернов, созданных по романам Карла Мая и главным героем которых являлся Виннету в исполнении французского актера Пьера Бриса. Тем более, что и литературная основа для этого имелась. И тоже немецкая - пенталогия писательницы Лизелотты Вельскопф-Генрих. Для выполнения проекта были привлечены лучшие режиссёры - Йозеф Мах, Конрад Петцольд, Рихард Грошопп, Готфрид Кольдиц и другие. Всего было запланировано 12 картин, и они были сняты. Съёмки проходили в местах, похожих на американские прерии - в Югославии (некоторые ленты просто снимались совместно с югославскими студиями), Грузии, некоторых других местах. Первым фильмом проекта стали "Сыновья Большой Медведицы". Снимать ленту поручили чехословацкому режиссёру Йозефу Маху. Оставалось только найти главного героя. Просмотрев западногерманские ленты о Виннету и Шаттерхэнде, Мах увидел в них актёра с яркой фактурой, играющего второй план, да и то, в эпизодах. Это был молодой югослав Гойко Митич, решивший попробовать себя в кино в качестве каскадёра и эпизодника. Первая картина цикла - "Сыновья Большой Медведицы - стала самой кассовой в ГДР, где её просмотрели 10 миллионов человек. Всего же цикл включает следующие ленты:-
-

Сыновья Большой Медведицы (1965)

Сыновья Большой Медведицы / Die Sohne der groben Barin (1965) DVDRip-
Русское название: Сыновья Большой Медведицы
Оригинальное название: Die Sohne der groben Barin
Cтрана: Германия (ГДР)
Год выпуска: 1965
Жанр: Боевик. Bестерн
Описание фильма:
В самом разгаре война с индейцами. Белые колонизаторы хотят согнать племя Дакота с их исконных земель, богатых золотом. Вождь индейцев Токей Ито отказывается от предложения переселиться в резервацию. Колонизаторы предлагают вождю либо жизнь в резервации, либо смерть, но вождь видит и другой выход из сложившейся ситуации. Он хочет увести свое племя на территорию Канады, где есть плодородные земли, и нет власти белых колонизаторов. Но для того, чтобы попасть в Канаду, нужно разбить войска колонизаторов, которых значительно больше, чем индейцев.
Режиссер: Йозеф Мах
Актеры: Рольф Рёмер, Иржи Врстала, Гойко Митич, Ганс Хардт-Хардтлофф, Герхард Рахольд, Хорст Йонишкан, Йозеф Майерчик, Йозеф Адамович, Милан Яблонски, Ханньо Хассе
Продолжительность: 01:20:52
Перевод: Дублированный
Язык субтитров: нет

Дата мировой премьеры: 18.02.1966
Видео: AVI (Xvid)
Битрейт видео: ~2146 Кbps
Размер кадра: 704 x 368
Качество видео: DVDRip
Aудио: AC3, 48,0 КHz, 2 ch, 256 Кbps
Сэмпл: Ссылка

MediaInfo

General
Complete name : D:\Торренты\ФИЛЬМЫ торента\Gojko Mitic Films\Сыновья Большой Медведицы (1965) DVDRip.avi
Format : AVI
Format/Info : Audio Video Interleave
File size : 1.36 GiB
Duration : 1h 20mn
Overall bit rate : 2 412 Kbps
Video
ID : 0
Format : MPEG-4 Visual
Format profile : Advanced [email protected]
Format settings, BVOP : 2
Format settings, QPel : No
Format settings, GMC : No warppoints
Format settings, Matrix : Default (H.263)
Muxing mode : Packed bitstream
Codec ID : XVID
Codec ID/Hint : XviD
Duration : 1h 20mn
Bit rate : 2 146 Kbps
Width : 704 pixels
Height : 368 pixels
Display aspect ratio : 1.913
Frame rate : 25.000 fps
Color space : YUV
Chroma subsampling : 4:2:0
Bit depth : 8 bits
Scan type : Progressive
Compression mode : Lossy
Bits/(Pixel*Frame) : 0.331
Stream size : 1.21 GiB (89%)
Writing library : XviD 1.2.0.dev47 (UTC 2006-11-01)
Audio
ID : 1
Format : AC-3
Format/Info : Audio Coding 3
Mode extension : CM (complete main)
Codec ID : 2000
Duration : 1h 20mn
Bit rate mode : Constant
Bit rate : 256 Kbps
Channel(s) : 2 channels
Channel positions : Front: L R
Sampling rate : 48.0 KHz
Bit depth : 16 bits
Compression mode : Lossy
Stream size : 148 MiB (11%)
Alignment : Split accross interleaves
Interleave, duration : 40 ms (1.00 video frame)
Interleave, preload duration : 500 ms
Скриншоты:
             
-

Чингачгук-большой змей (1967)

Чингачгук-большой змей / Chingachgook, die grosse Schlange (1967) DVDRip-
Русское название: Чингачгук-большой змей
Оригинальное название: Chingachgook, die grosse Schlange
Cтрана: Германия (ГДР)
Год выпуска: 1967
Жанр: Драма, Приключения, Вестерн
Описание фильма:
1740 год. Английские войска пытаются отбить у французов их североамериканские колонии и втягивают в эту войну индейцев. В руки гуронов, которых французы натравили на делаваров, попадает Ватава, дочь вождя, обещанная Чингачгуку. Он собирается освободить ее с помощью своего друга Зверобоя. Неподалеку от лагеря гуронов они сталкиваются с охотниками за скальпами. Чингачгук попадает в плен к гуронам. Он пытается убедить их, что индейцам нет дела до войны между белыми. Но это ему не удается. Между тем один из охотников приводит английских солдат, которые наголову разбивают гуронов. Теперь их тяжело раненный вождь понимает, что Чингачгук был прав. Сумеют ли Чингачгук, Ватава и Зверобой выжить в этой резне?..
Режиссер: Рихард Грошопп
Актеры: Гойко Митич, Рольф Ремер, Лило Гран, Хельмут Шрайбер, Юрген Фрорип, Хайнц Клевенов, Йоханнес Книттель
Продолжительность: 01:23:14
Перевод: Дублированный
Язык субтитров: нет

Дата мировой премьеры: 25.06.1967
Видео: AVI (Xvid)
Битрейт видео: ~2152 Kbps
Размер кадра: 720 x 416
Качество видео: DVDRip
Aудио: AC3, 48.0 KHz, 2 ch, 192 Kbps
Сэмпл: Ссылка

MediaInfo

General
Complete name : D:\Торренты\ФИЛЬМЫ торента\Gojko Mitic Films\Чингачгук-большой змей (1967) DVDRip.avi
Format : AVI
Format/Info : Audio Video Interleave
File size : 1.37 GiB
Duration : 1h 23mn
Overall bit rate : 2 351 Kbps
Video
ID : 0
Format : MPEG-4 Visual
Format profile : Advanced [email protected]
Format settings, BVOP : 1
Format settings, QPel : No
Format settings, GMC : No warppoints
Format settings, Matrix : Custom
Codec ID : XVID
Codec ID/Hint : XviD
Duration : 1h 23mn
Bit rate : 2 152 Kbps
Width : 720 pixels
Height : 416 pixels
Display aspect ratio : 16:9
Frame rate : 25.000 fps
Color space : YUV
Chroma subsampling : 4:2:0
Bit depth : 8 bits
Scan type : Progressive
Compression mode : Lossy
Bits/(Pixel*Frame) : 0.287
Stream size : 1.25 GiB (92%)
Writing library : XviD 1.2.0.dev47 (UTC 2006-11-01)
Audio
ID : 1
Format : AC-3
Format/Info : Audio Coding 3
Mode extension : CM (complete main)
Codec ID : 2000
Duration : 1h 23mn
Bit rate mode : Constant
Bit rate : 192 Kbps
Channel(s) : 2 channels
Channel positions : Front: L R
Sampling rate : 48.0 KHz
Bit depth : 16 bits
Compression mode : Lossy
Stream size : 114 MiB (8%)
Alignment : Split accross interleaves
Interleave, duration : 96 ms (2.40 video frames)
Interleave, preload duration : 96 ms
Скриншоты:
          [imgs]http://img94.imageshack.us/img94/5493/vlcsnap2011073001h01m24.p


Последний раз редактировалось: Omen (2011-07-31 13:45), всего редактировалось 1 раз
Вне форума [Профиль] [ЛС]
Похожие темы
Форум Тема Автор Торрент Отв. Посл. сообщение
./templates/default/images/folder_dl.gif Современная проза, классика, поэзия Коллекция старинных книг истории России в оригинале [XVI век] [PDF, DjVU, JPG] Nugeiro
1 | 0

1 | 1133

5

2013-02-03 15:42
Naik Последнее
./templates/default/images/folder_dl.gif Приключения, детектив, боевик, триллер Александр Шувалов - Коллега [2011] [FB2, EPUB, PDF, RTF] Omen
0 | 1

0 | 876

7

2012-10-06 18:29
Omen Последнее
./templates/default/images/folder_dl.gif Обучающее видео Семинар 2 от 15.05.12 Строим бесконфликтные отношения в коллективе. Тандемный принцип [2012, методология управления и корпоративная культура, DVDRip, RUS] (Видеоурок) Omen
1 | 0

0 | 571

4

2012-12-15 00:56
Omen Последнее
./templates/default/images/folder_dl.gif Зарубежные Фильмы для детей Шрек: Коллекция / Shrek: Collection (2001-2010) BDRip-AVC / HDTVRip-AVC от R.G. AVI | AVC Varius
1 | 0

0 | 800

11

2013-03-08 06:59
Varius Последнее
./templates/default/images/folder_dl.gif Аркады (разное) Полная коллекция мини игр Alawar (2003-2013) [Ru/En] RePack adguard [Обновляемая] Omen
0 | 1

1 | 711

3

2013-04-26 16:36
naryshev Последнее
./templates/default/images/folder_dl.gif Rock (Neo-Prog / Polish Prog) State Urge - Коллекция (3 релиза) - 2010-2012, FLAC (tracks), lossless Omen
1 | 0

0 | 910

5

2013-05-01 14:03
Omen Последнее
./templates/default/images/folder_dl.gif Rock (Rock/Fusion/Psychedelic) Kingfish (Kingfish with Bob Weir) - Коллекция 1974-1986 - (5 Альбомов), MP3 (tracks), 320 kbps Omen
0 | 1

0 | 692

0

2013-08-25 12:23
Omen Последнее
./templates/default/images/folder_dl.gif Шансон (Шансон) Григорий Лепс - MP3 Play. Музыкальная коллекция - 2013, MP3, 320 kbps O.S.A.
1 | 0

0 | 610

33

2014-06-06 14:20
O.S.A. Последнее
./templates/default/images/folder_dl.gif Шансон (Шансон) Анатолий Полотно и Федя Карманов - MP3 Play. Музыкальная коллекция - 2014, MP3, 256-320 kbps O.S.A.
3 | 0

0 | 930

33

2014-06-08 17:45
O.S.A. Последнее
./templates/default/images/folder_dl.gif Приключения и квесты Коллекция новейших игр Alawar - июль 2014 (2014) (Alawar Entertainment) (RUS) [P] Fly
1 | 0

3 | 962

13

2014-08-15 16:48
Геннадич Последнее
Показать сообщения:    
Ответить на тему

Текущее время: Сегодня 22:18

Часовой пояс: GMT + 3



Вы не можете начинать темы
Вы не можете отвечать на сообщения
Вы не можете редактировать свои сообщения
Вы не можете удалять свои сообщения
Вы не можете голосовать в опросах
Вы не можете прикреплять файлы к сообщениям
Вы не можете скачивать файлы