Сегодня идет свободное скачивание без начисления Download

Джо Кидд / Joe Kidd (1972) BDRip [720p]

Ответить на тему
 
Автор
Сообщение

UndegraundMen ®

Стаж: 3 года 9 месяцев

Сообщений: 28329

Торрент-статистика

Пост 19-Май-2013 00:02

[Цитировать]

Джо Кидд / Joe Kidd (1972) BDRip [720p]- Русское название: Джо Кидд
Оригинальное название: Joe Kidd
Год выпуска: 1972
Жанр: Вестерн
Описание фильма:
Джо Кидд — бывший охотник за головами, один из лучших стрелков Дикого Запада. От богатого, нечистого на руку землевладельца Фрэнка Гарлана поступает привычное для Кидда предложение: разыскать и обезвредить преступника. На этот раз это мексиканский бунтовщик Луис Чам, убежденный, что Гарлан незаконно завладел его землей. И теперь Чам и его помощники с оружием в руках защищают свои владения. Кидду предстоит разобраться, кто же все-таки прав и чьи интересы ему следует защищать. Ведь Джо Кидд всегда стоял на стороне закона.
Режиссер: Джон Стёрджес / John Sturges
Актеры: Клинт Иствуд, Роберт Дювалл, Джон Сэксон, Дон Страуд, Стелла Гарсиа, Джеймс Вейнрайт, Пол Косло, Грегори Уэлкотт, Дик Ван Пэттен, Линн Март
Продолжительность: 01:23:58
Перевод: Многоголосый закадровый
Язык субтитров: английские
Вид субтитров: Вшитые
Дата мировой премьеры: 14 июля 1972

Видеокодек: MPEG-4 AVC/H.264
Битрейт видео: ~5500 kb/s
Размер кадра: 1280x544
Качество видео: BDRip
Аудиокодек: AC3
Аудио #1: Русский ( AC3 / 2.0 / 48 kHz / 192 kbps ) - Дубляж
Аудио #2: Русский( AC3 /2.0 / 48 kHz / 192 kbps ) - Дубляж (Первый канал)
Аудио #3: Английский ( AC3 / 2.0 / 48 kHz / 256 kbps ) - Оригинал

MediaInfo

Уникальный идентификатор : 208387169233702798244778909317589814313 (0x9CC5E8AF548DB92DA272A7BE2B3ECC29)
Полное имя : C:\Users\Артём\Desktop\запись\Joe.Kidd.1972.x264.BDRip.(720p).mkv
Формат : Matroska
Версия формата : Version 4 / Version 2
Размер файла : 3,76 Гбайт
Продолжительность : 1 ч. 27 м.
Общий поток : 6147 Кбит/сек
Название фильма : = MediaClub = rip by Painter
Дата кодирования : UTC 2013-05-14 07:13:28
Программа кодирования : mkvmerge v6.1.0 ('Old Devil') built on Mar 2 2013 14:32:37
Библиотека кодирования : libebml v1.3.0 + libmatroska v1.4.0
Видео
Идентификатор : 1
Формат : AVC
Формат/Информация : Advanced Video Codec
Профиль формата : [url=mailto:[email protected]][email protected][/url]
Параметр CABAC формата : Да
Параметр ReFrames формата : 9 кадров
Идентификатор кодека : V_MPEG4/ISO/AVC
Продолжительность : 1 ч. 27 м.
Битрейт : 5500 Кбит/сек
Ширина : 1280 пикселей
Высота : 544 пикселя
Соотношение сторон : 2,35:1
Режим частоты кадров : Постоянный
Частота кадров : 23,976 кадра/сек
Цветовое пространство : YUV
Субдискретизация насыщенности : 4:2:0
Битовая глубина : 8 бит
Тип развёртки : Прогрессивная
Бит/(Пиксели*Кадры) : 0.329
Размер потока : 3,29 Гбайт (88%)
Библиотека кодирования : x264 core 130 r2273 b3065e6
Настройки программы : cabac=1 / ref=9 / deblock=1:-3:-2 / analyse=0x3:0x133 / me=umh / subme=11 / psy=1 / psy_rd=1.00:0.25 / mixed_ref=1 / me_range=32 / chroma_me=1 / trellis=2 / 8x8dct=1 / cqm=0 / deadzone=21,11 / fast_pskip=0 / chroma_qp_offset=-4 / threads=6 / lookahead_threads=1 / sliced_threads=0 / nr=0 / decimate=0 / interlaced=0 / bluray_compat=0 / constrained_intra=0 / bframes=7 / b_pyramid=2 / b_adapt=2 / b_bias=0 / direct=3 / weightb=1 / open_gop=0 / weightp=2 / keyint=240 / keyint_min=23 / scenecut=40 / intra_refresh=0 / rc=2pass / mbtree=0 / bitrate=5500 / ratetol=1.0 / qcomp=0.60 / qpmin=0 / qpmax=69 / qpstep=4 / cplxblur=20.0 / qblur=0.5 / ip_ratio=1.40 / pb_ratio=1.30 / aq=1:1.00
Язык : English
Default : Да
Forced : Нет
Аудио #1
Идентификатор : 2
Формат : AC-3
Формат/Информация : Audio Coding 3
Расширение режима : CM (complete main)
Параметр Endianness формата : Big
Идентификатор кодека : A_AC3
Продолжительность : 1 ч. 27 м.
Вид битрейта : Постоянный
Битрейт : 192 Кбит/сек
Каналы : 2 канала
Расположение каналов : Front: L R
Частота : 48,0 КГц
Битовая глубина : 16 бит
Метод сжатия : С потерями
Размер потока : 120 Мбайт (3%)
Заголовок : Многоголосый (SomeWax)
Язык : Russian
Default : Да
Forced : Нет
Аудио #2
Идентификатор : 3
Формат : AC-3
Формат/Информация : Audio Coding 3
Расширение режима : CM (complete main)
Параметр Endianness формата : Big
Идентификатор кодека : A_AC3
Продолжительность : 1 ч. 27 м.
Вид битрейта : Постоянный
Битрейт : 192 Кбит/сек
Каналы : 2 канала
Расположение каналов : Front: L R
Частота : 48,0 КГц
Битовая глубина : 16 бит
Метод сжатия : С потерями
Размер потока : 120 Мбайт (3%)
Заголовок : Многоголосый ( Первый канал)
Язык : Russian
Default : Нет
Forced : Нет
Аудио #3
Идентификатор : 4
Формат : AC-3
Формат/Информация : Audio Coding 3
Расширение режима : CM (complete main)
Параметр Endianness формата : Big
Идентификатор кодека : A_AC3
Продолжительность : 1 ч. 27 м.
Вид битрейта : Постоянный
Битрейт : 256 Кбит/сек
Каналы : 2 канала
Расположение каналов : Front: L R
Частота : 48,0 КГц
Битовая глубина : 16 бит
Метод сжатия : С потерями
Размер потока : 160 Мбайт (4%)
Язык : English
Default : Нет
Forced : Нет
Текст #1
Идентификатор : 5
Формат : UTF-8
Идентификатор кодека : S_TEXT/UTF8
Идентификатор кодека/Информация : UTF-8 Plain Text
Язык : Russian
Default : Нет
Forced : Нет
Текст #2
Идентификатор : 6
Формат : UTF-8
Идентификатор кодека : S_TEXT/UTF8
Идентификатор кодека/Информация : UTF-8 Plain Text
Язык : English
Default : Нет
Forced : Нет
Меню
00:00:00.000 : en:Chapter 01
00:06:07.825 : en:Chapter 02
00:17:41.894 : en:Chapter 03
00:23:52.764 : en:Chapter 04
00:28:01.012 : en:Chapter 05
00:30:13.353 : en:Chapter 06
00:37:10.144 : en:Chapter 07
00:42:13.864 : en:Chapter 08
00:49:45.440 : en:Chapter 09
01:00:35.506 : en:Chapter 10
01:04:46.382 : en:Chapter 11
01:09:01.929 : en:Chapter 12
01:14:32.676 : en:Chapter 13
01:18:15.190 : en:Chapter 14
01:23:19.035 : en:Chapter 15
01:25:16.986 : en:Chapter 16
Скриншоты:
       
 
Время раздачи: С 8:30 до 23:00
Вне форума [Профиль] [ЛС]
Показать сообщения:    
Ответить на тему

Текущее время: Сегодня 14:45

Часовой пояс: GMT + 3



Вы не можете начинать темы
Вы не можете отвечать на сообщения
Вы не можете редактировать свои сообщения
Вы не можете удалять свои сообщения
Вы не можете голосовать в опросах
Вы не можете прикреплять файлы к сообщениям
Вы не можете скачивать файлы