Сегодня идет свободное скачивание без начисления Download

Как выйти замуж за миллионера / How to Marry a Millionaire (1953) [1080p] BDRip

Ответить на тему
 
Автор
Сообщение

UndegraundMen ®

Стаж: 3 года 9 месяцев

Сообщений: 28329

Торрент-статистика

Пост 19-Май-2013 00:02

[Цитировать]

Как выйти замуж за миллионера / How to Marry a Millionaire (1953) BDRip-«The Most Glamorous Entertainment Of Your Lifetime in CinemaScope. You See It Without Glasses!»
Русское название: Как выйти замуж за миллионера
Оригинальное название: How to Marry a Millionaire
Год выпуска: 1953
Жанр: Драма, Мелодрама, Комедия
Описание фильма:
Нью-Йорк слезам не верит. Традиционная ситуация: три модели-блондинки ищут мужей-миллионеров. Для осуществления своих планов девушки снимают шикарную квартиру в элитном районе и начинают осуществлять задуманное. Проходят три месяца - из квартиры продана последняя мебель, а на горизонте - ни одной подходящей партии. К финалу картины страсти накаляются, у двух подруг возникает дилемма: деньги или любовь? Лишь у третьей, на первый взгляд, все складывается хорошо. Но это лишь - на первый взгляд.
Режиссер: Жан Негулеско
Актеры: Бетти Грэйбл, Мэрилин Монро, Лорен Бэколл, Дэвид Уэйн, Рори Кэлхун, Кэмерон Митчелл, Александр Д’Арси, Фред Кларк, Уильям Пауэлл, Джордж Данн, Перси Хелтон, Роберт Адлер, Гарри Картер, Тудор Оуэн, Морис Марсак, Эмметт Воган, Хермин Стерлер, Эбни Мотт, Ральф Рид, Ян Арван
Продолжительность: 01:35:46
Перевод: Дублированный
Язык субтитров: Русские, английские
Вид субтитров: Вшитые

Дата мировой премьеры: 4 ноября 1953
Дата выхода DVD релиза: 25 сентября 2008, «Двадцатый Век Фокс СНГ»

Видеокодек: MPEG-4 AVC/H.264
Битрейт видео: ~19500 Кбит/с
Размер кадра: 1920x754
Качество видео: BDRip
Аудио 1: DTS Русский 6ch / 48 kHz / 768 kbps / 24-bit Дублированный
Аудио 2: DTS Английский 6ch / 48 kHz /1510 kbps / 24-bit Оригинал
Сэмпл: Ссылка

MediaInfo

Общее
Уникальный идентификатор : 219127169862190259284247164677384770138 (0xA4DA5B993751E232A41DCB31C95B125A)
Полное имя : C:\Xvid4PSP\How.to.Marry.a.Millionaire.1953.BDRip.1080p.mkv
Формат : Matroska
Версия формата : Version 4 / Version 2
Размер файла : 14,9 Гбайт
Продолжительность : 1 ч. 35 м.
Общий поток : 22,2 Мбит/сек
Название фильма : How to Marry a Millionaire (1953) - Release foe HDCLUB (nmd)
Дата кодирования : UTC 2013-05-17 08:22:51
Программа кодирования : mkvmerge v6.2.0 ('Promised Land') built on Apr 28 2013 12:22:01
Библиотека кодирования : libebml v1.3.0 + libmatroska v1.4.0
Видео
Идентификатор : 1
Формат : AVC
Формат/Информация : Advanced Video Codec
Профиль формата : [url=mailto:[email protected]][email protected][/url]
Параметр CABAC формата : Да
Параметр ReFrames формата : 5 кадров
Идентификатор кодека : V_MPEG4/ISO/AVC
Продолжительность : 1 ч. 35 м.
Битрейт : 19,5 Мбит/сек
Ширина : 1920 пикселей
Высота : 754 пикселя
Соотношение сторон : 2,546
Режим частоты кадров : Постоянный
Частота кадров : 23,976 кадра/сек
Цветовое пространство : YUV
Субдискретизация насыщенности : 4:2:0
Битовая глубина : 8 бит
Тип развёртки : Прогрессивная
Бит/(Пиксели*Кадры) : 0.563
Размер потока : 13,1 Гбайт (88%)
Заголовок : Release for HDCLUB
Библиотека кодирования : x264 core 130 r2273 b3065e6
Настройки программы : cabac=1 / ref=5 / deblock=1:-3:-3 / analyse=0x3:0x133 / me=umh / subme=11 / psy=1 / psy_rd=1.20:0.05 / mixed_ref=1 / me_range=32 / chroma_me=1 / trellis=2 / 8x8dct=1 / cqm=0 / deadzone=21,11 / fast_pskip=0 / chroma_qp_offset=-3 / threads=9 / lookahead_threads=1 / sliced_threads=0 / nr=0 / decimate=1 / interlaced=0 / bluray_compat=0 / constrained_intra=0 / bframes=8 / b_pyramid=2 / b_adapt=2 / b_bias=0 / direct=3 / weightb=1 / open_gop=0 / weightp=2 / keyint=240 / keyint_min=23 / scenecut=40 / intra_refresh=0 / rc=crf / mbtree=0 / crf=17.0 / qcomp=0.60 / qpmin=0 / qpmax=69 / qpstep=4 / ip_ratio=1.40 / pb_ratio=1.30 / aq=1:0.70
Язык : English
Default : Да
Forced : Нет
Основные цвета : BT.709
Характеристики трансфера : BT.709
Коэффициенты матрицы : BT.709
Аудио #1
Идентификатор : 2
Формат : DTS
Формат/Информация : Digital Theater Systems
Режим : 16
Параметр Endianness формата : Big
Идентификатор кодека : A_DTS
Продолжительность : 1 ч. 35 м.
Вид битрейта : Постоянный
Битрейт : 768 Кбит/сек
Каналы : 6 каналов
Расположение каналов : Front: L C R, Side: L R, LFE
Частота : 48,0 КГц
Битовая глубина : 24 бит
Метод сжатия : С потерями
Размер потока : 526 Мбайт (3%)
Заголовок : dts 5.1 @ 768 kbps |DUB, CEE|
Язык : Russian
Default : Нет
Forced : Нет
Аудио #2
Идентификатор : 3
Формат : DTS
Формат/Информация : Digital Theater Systems
Режим : 16
Параметр Endianness формата : Big
Идентификатор кодека : A_DTS
Продолжительность : 1 ч. 35 м.
Вид битрейта : Постоянный
Битрейт : 1510 Кбит/сек
Каналы : 6 каналов
Расположение каналов : Front: L C R, Side: L R, LFE
Частота : 48,0 КГц
Битовая глубина : 24 бит
Метод сжатия : С потерями
Размер потока : 1,01 Гбайт (7%)
Заголовок : dts 5.1 @ 1509 kbps
Язык : English
Default : Нет
Forced : Нет
Текст #1
Идентификатор : 4
Формат : UTF-8
Идентификатор кодека : S_TEXT/UTF8
Идентификатор кодека/Информация : UTF-8 Plain Text
Заголовок : DVD Magia
Язык : Russian
Default : Нет
Forced : Нет
Текст #2
Идентификатор : 5
Формат : UTF-8
Идентификатор кодека : S_TEXT/UTF8
Идентификатор кодека/Информация : UTF-8 Plain Text
Заголовок : FOX
Язык : Russian
Default : Нет
Forced : Нет
Текст #3
Идентификатор : 6
Формат : UTF-8
Идентификатор кодека : S_TEXT/UTF8
Идентификатор кодека/Информация : UTF-8 Plain Text
Заголовок : SomeWax
Язык : Russian
Default : Нет
Forced : Нет
Текст #4
Идентификатор : 7
Формат : UTF-8
Идентификатор кодека : S_TEXT/UTF8
Идентификатор кодека/Информация : UTF-8 Plain Text
Язык : English
Default : Нет
Forced : Нет
Меню
00:00:00.000 : en:Street Scene
00:05:56.356 : en:Main Titles
00:07:13.141 : en:Women Of Decision
00:14:11.267 : en:The Marriage Plan
00:18:35.114 : en:Three Months Later
00:23:59.271 : en:Tables For Two
00:29:31.352 : en:The Powder Room
00:31:45.320 : en:Rich Dreams
00:33:39.642 : en:A Fashion Show
00:39:05.176 : en:Brewster's Lodge
00:46:48.013 : en:Denmark's Return
00:52:56.882 : en:The future mrs. Blinky
00:55:15.312 : en:Measles In Maine
01:00:04.225 : en:One More Try
01:02:39.672 : en:Blind As A Bat
01:09:33.377 : en:A Man Without Trees
01:12:00.316 : en:Back To New York
01:15:02.831 : en:The Fifty Millionth Car
01:17:16.256 : en:Money Isn't Everything
01:20:23.276 : en:A Change Of Mind
01:21:48.737 : en:Wedding Day
01:27:49.681 : en:A Change Of Heart
01:32:06.103 : en:A Delayed Decision
01:33:33.232 : en:The Bride's New Bankroll
Скриншоты:
         
Время раздачи: 24/7
Вне форума [Профиль] [ЛС]
Показать сообщения:    
Ответить на тему

Текущее время: Сегодня 00:21

Часовой пояс: GMT + 3



Вы не можете начинать темы
Вы не можете отвечать на сообщения
Вы не можете редактировать свои сообщения
Вы не можете удалять свои сообщения
Вы не можете голосовать в опросах
Вы не можете прикреплять файлы к сообщениям
Вы не можете скачивать файлы