Today is a free download without charge Download

Ильдар Южный и гр. «Марьина роща» - 16 альбомов/Коллекция (1997-2013) [WavPack/Flac|Lossless]<Шансон>

Reply to topic
 
Author
Message

UndegraundMen ®

Longevity: 8 years 1 month

Posts: 25145

Торрент-статистика

Post 19-May-2013 00:03

[Quote]

Ильдар Южный и гр. «Марьина роща» - 16 альбомов/Коллекция (1997-2013)- Год издания: 1997-2013
Жанр: Шансон
Продолжительность: 13:45:58
Кодек: WavPack, Flac
Битрейт: lossless
Тип рипа: image+.cue
Альбом лист:
1. 1997 - Черная киса
2. 1997 - Бояре-купола
3. 1999 - Избранное
4. 2000 - Новая Колода
5. 2001 - Всё было....?!
6. 2002 - Старик
7. 2004 - Затерянный рай
8. 2006 - Вспомнить старое... Лучшее
9. 2006 - Настроение шансон
10. 2006 - Капкан
11. 2007 - Новое и лучшее
12. 2008 - Не забывай меня
13. 2011 - Босанова
14. 2012 - Лавочки - скамеечки
15. 2012 - Золотой фонд Гостелерадио СССР
16. 2013 - The Best

Биография&#58;

Ильдар Южный (Курмаев) - Мэтр жанровой песни, Мастер ретроспективы, один из известных авторов и исполнителей русского шансона.
Родился 1 ноября 1960 года. На гитаре начал играть в пятнадцать лет. Играл в школьном ансамбле на ударных инструментах, в ансамбле таксопарка, где работал водителем. Группа «Марьина роща» была создана в 1996 году.
Своим появлением группа обязана творческому союзу вокалиста, автора текстов и музыки Ильдару Южному и клавишнику - аранжировщику Марату Ахмадиеву. Название группы не случайное и имеет к коллективу самое прямое отношение, так как ребята выросли в этом замечательном районе Москвы.
В 1996 году выходит первый альбом группы «Марьина роща» под рабочим названием «Черная киса». Прозвучавшие в нём песни «Баночка с чифирем», «Летите голуби» и «Чёрная киса» сразу стали любимыми песнями любителей жанра.
Это подвигло группу «Марьина роща» к записи и выпуску следующего альбома и в 1997 году выходит альбом «Бояре купола». По ряду причин группа прекратила свою творческую деятельность на самом пике её спроса.
В 2000 году был создан новый состав группы «Марьина роща» с неизменным исполнителем Ильдаром Южным и коллектив приступил к записи третьего альбома «Все было». Группа «Марьина роща» снова начинает свою концертную деятельность по городам России.
В этом же году Ильдара Южного пригласили выступить на легендарный фестиваль русского шансона «ЗВЁЗДНАЯ ПУРГА» проходившего во Дворце спорта «ОЛИМПИЙСКИЙ», где принимали участие легенда кино и эстрады Борис Сичкин он же Буба, Михаил Шуфутинский, Любовь Успенская и многие другие исполнители.
В 2002 году выходит сольный альбом Ильдара Южного «Старик» с превалирующей босяцкой темой.
В 2004 году вышел альбом «Затерянный рай».
В продолжение сольных проектов Ильдара Южного 2006 году записывается и выходит альбом «Капкан».
В 2008 году заканчивается работа над очередным альбомом под рабочим названием «Не забывай меня».
За время работы с группой и последних сольных альбомов, Ильдар видел творческие параллели с такими мэтрами, как Утесов, Бернес, Петр Лещенко, Николай Рыбников и в 2010 году Ильдар Южный принял решение продолжать музыкальные традиции этих великих артистов.
Изучив музыкальную составляющую и подобрав ряд песен, он приступил к записи нового альбома «Босанова», положив тем самым первый камень в фундамент своего нового творческого «Храма», дав ему определение как – «Ретро шансон».
В 2011 году эта пластинка поступает в продажу и 5 песен звучат на различных радиостанциях страны. С различных уголков России и ближнего зарубежья начали поступать письма с благодарностями и одобрением, что не оставляет сомнений в правильности его творческих поисков и И.Южный продолжает запись песен, в выбранном им направлении, став истинным мастером музыкальной ретроспективы.
В 2012 году издается альбом «Лавочки-скамеечки», насквозь пропитанный духом 60-70-80 годов, в лучших музыкальных традициях мастеров тех лет. Параллельно ведется работа над, ставшим для Ильдара Южного приоритетным, Ретро-Проектом по реанимации вошедших в «Золотую коллекцию Гостелерадио СССР» и ставших народными, песен прошлых лет. Многогранность Мэтра дополняется Проектом «Марьина роща» давшим ему имя и популярность.

1997 - Черная киса&#58;

Продолжительность: 00:46:29
Издатель (лейбл): Master Sound Records
]Каталог №: MS 135
Кодек: WavPack (*.wv)
Битрейт: lossless
Трек лист:
1. Черная киса 03:33
2. Баночка с чифиром 04:08
3. Коррида 03:41
4. Навеки твой 04:58
5. Одесса 03:14
6. Такси 03:30
7. Антракт 03:09
8. Пасха 03:43
9. Летите голуби 05:04
10. С Петром 04:05
11. Напутствие любимой 03:06
12. У хозяина 03:55

Отчёт ЕАС&#58;

Код:
Exact Audio Copy V0.99 prebeta 4 from 23. January 2008
Отчёт EAC об извлечении, выполненном 28. марта 2009, 22:49
Ильдар Южный и группа 'Марьина Роща' / Черная киса
Дисковод: TEAC    DV-W520GM   Adapter: 4  ID: 2
Режим чтения                 : Достоверность
Использование точного потока : Да
Отключение кэша аудио        : Да
Использование указателей C2  : Нет
Коррекция смещения при чтении                     : 6
Способность читать области Lead-in и Lead-out     : Нет
Заполнение пропущенных сэмплов тишиной            : Да
Удаление блоков с тишиной в начале и конце        : Нет
При вычислениях CRC использовались нулевые сэмплы : Да
Интерфейс                                         : Установленный внешний ASPI-интерфейс
Выходной формат : Внутренние WAV-операции
Формат сэмплов  : 44.100 Гц; 16 бит; стерео
TOC извлечённого CD
     Трек |   Старт  | Длительность | Начальный сектор | Конечный сектор
    ---------------------------------------------------------------------
       1  |  0:00.55 |    3:35.12   |          55      |      16191
       2  |  3:35.67 |    4:10.15   |       16192      |      34956
       3  |  7:46.07 |    3:43.23   |       34957      |      51704
       4  | 11:29.30 |    4:59.55   |       51705      |      74184
       5  | 16:29.10 |    3:15.37   |       74185      |      88846
       6  | 19:44.47 |    3:31.65   |       88847      |     104736
       7  | 23:16.37 |    3:10.68   |      104737      |     119054
       8  | 26:27.30 |    3:45.30   |      119055      |     135959
       9  | 30:12.60 |    5:05.57   |      135960      |     158891
      10  | 35:18.42 |    4:07.28   |      158892      |     177444
      11  | 39:25.70 |    3:07.60   |      177445      |     191529
      12  | 42:33.55 |    3:56.25   |      191530      |     209254
Характеристики диапазона извлечения и сообщения об ошибках
Выбранный диапазон
     Имя файла F:\RELEASE\My RELEASES\Отечественный шансон (lossless)\Ильдар Южный и группа 'Марьина Роща' - Черная киса [1997]\Ильдар Южный и группа 'Марьина Роща' - Черная киса.wav
     Пиковый уровень 99.9 %
     Качество диапазона 100.0 %
     CRC теста ECD0B25A
     CRC копии ECD0B25A
     Копирование... OK
Ошибок не произошло
AccurateRip: сводка
Трек  1  нет в базе данных
Трек  2  нет в базе данных
Трек  3  нет в базе данных
Трек  4  нет в базе данных
Трек  5  нет в базе данных
Трек  6  нет в базе данных
Трек  7  нет в базе данных
Трек  8  нет в базе данных
Трек  9  нет в базе данных
Трек 10  нет в базе данных
Трек 11  нет в базе данных
Трек 12  нет в базе данных
Ни одного трека нет в базе AccurateRip
Конец отчёта

Отчёт auCDtect Task manager&#58;

Код:
-----------------------
DON'T MODIFY THIS FILE
-----------------------
PERFORMER: auCDtect Task Manager, ver. 1.6.0 RC1 build 1.6.0.1
Copyright (c) 2008-2010 y-soft. All rights reserved
http://y-soft.org
ANALYZER: auCDtect: CD records authenticity detector, version 0.8.2
Copyright (c) 2004 Oleg Berngardt. All rights reserved.
Copyright (c) 2004 Alexander Djourik. All rights reserved.
FILE: 1997 - Ильдар Южный - Черная киса .wv
  Size: 323599254 Hash: DF55EF832BE5FE426625B730ED32B62F Accuracy: -m0
  Conclusion: CDDA 100%
  Signature: 8D59192DF3D7BA37CB8764E5AE8C452525947BB3

1997 - Бояре-купола&#58;

Продолжительность: 00:42:53
Издатель (лейбл): Master Sound Records, Russia
]Каталог №: MS CD 159/97
Кодек: WavPack (*.wv)
Битрейт: lossless
Трек лист:
1. Бояре-купола 03:49
2. За перегоном - перегон 03:50
3. Ангел мой 04:41
4. Эх, масть бубновая 03:09
5. Постели нам постель 05:46
6. Ну вот и всё 04:43
7. Водочка 03:31
8. Сокольники 03:27
9. Сасуман 06:30
10. Капелька 03:10

Отчёт ЕАС&#58;

Код:
Exact Audio Copy V0.99 prebeta 4 from 23. January 2008
Отчёт EAC об извлечении, выполненном 28. марта 2009, 23:25
Группа 'Марьина Роща' / Бояре-купола
Дисковод: TEAC    DV-W520GM   Adapter: 4  ID: 2
Режим чтения                 : Достоверность
Использование точного потока : Да
Отключение кэша аудио        : Да
Использование указателей C2  : Нет
Коррекция смещения при чтении                     : 6
Способность читать области Lead-in и Lead-out     : Нет
Заполнение пропущенных сэмплов тишиной            : Да
Удаление блоков с тишиной в начале и конце        : Нет
При вычислениях CRC использовались нулевые сэмплы : Да
Интерфейс                                         : Установленный внешний ASPI-интерфейс
Выходной формат : Внутренние WAV-операции
Формат сэмплов  : 44.100 Гц; 16 бит; стерео
TOC извлечённого CD
     Трек |   Старт  | Длительность | Начальный сектор | Конечный сектор
    ---------------------------------------------------------------------
       1  |  0:00.55 |    3:50.50   |          55      |      17354
       2  |  3:51.30 |    3:51.45   |       17355      |      34724
       3  |  7:43.00 |    4:42.72   |       34725      |      55946
       4  | 12:25.72 |    3:10.48   |       55947      |      70244
       5  | 15:36.45 |    5:47.52   |       70245      |      96321
       6  | 21:24.22 |    4:44.45   |       96322      |     117666
       7  | 26:08.67 |    3:33.08   |      117667      |     133649
       8  | 29:42.00 |    3:29.25   |      133650      |     149349
       9  | 33:11.25 |    6:31.57   |      149350      |     178731
      10  | 39:43.07 |    3:11.45   |      178732      |     193101
Характеристики диапазона извлечения и сообщения об ошибках
Выбранный диапазон
     Имя файла F:\RELEASE\My RELEASES\Отечественный шансон (lossless)\Группа 'Марьина Роща' - Бояре-купола [1997]\Группа 'Марьина Роща' - Бояре-купола.wav
     Пиковый уровень 100.0 %
     Качество диапазона 100.0 %
     CRC теста 96372B30
     CRC копии 96372B30
     Копирование... OK
Ошибок не произошло
AccurateRip: сводка
Трек  1  нет в базе данных
Трек  2  нет в базе данных
Трек  3  нет в базе данных
Трек  4  нет в базе данных
Трек  5  нет в базе данных
Трек  6  нет в базе данных
Трек  7  нет в базе данных
Трек  8  нет в базе данных
Трек  9  нет в базе данных
Трек 10  нет в базе данных
Ни одного трека нет в базе AccurateRip
Конец отчёта

Отчёт auCDtect Task manager&#58;

Код:
-----------------------
DON'T MODIFY THIS FILE
-----------------------
PERFORMER: auCDtect Task Manager, ver. 1.6.0 RC1 build 1.6.0.1
Copyright (c) 2008-2010 y-soft. All rights reserved
http://y-soft.org
ANALYZER: auCDtect: CD records authenticity detector, version 0.8.2
Copyright (c) 2004 Oleg Berngardt. All rights reserved.
Copyright (c) 2004 Alexander Djourik. All rights reserved.
FILE: 1997 - Ильдар Южный - Бояре-купола.wv
  Size: 313562283 Hash: 2CA5961693C2AA367775C9ECE3885F33 Accuracy: -m0
  Conclusion: CDDA 100%
  Signature: 43B73680B614EC91226D732A7C962A0DC5A7FD2F

2000 - Избранное&#58;

Продолжительность: 00:59:16
Издатель (лейбл): Русское Снабжение, Russia
]Каталог №: RS 001
Кодек: WavPack (*.wv)
Битрейт: lossless
Трек лист:
1. За перегоном - перегон 03:58
2. Баночка с чифиром 03:35
3. Голуби 05:40
4. Избушка сторожа 02:56
5. Ангел мой 04:53
6. Марьина роща 03:38
7. Черная киса 03:29
8. Сусуман 05:10
9. Катала 03:15
10. Навеки твой 05:46
11. Сокольники 03:20
12. Такси 03:47
13. Постели мне постель 05:33
14. Бояре-купола 03:44

Отчёт ЕАС&#58;

Код:
Отчёт EAC об извлечении, выполненном 27. февраля 2009, 18:24 для диска:
Ильдар Южный / Избранное
Дисковод: _NEC DVD_RW ND-3540A Adapter: 0 ID: 0
Режим чтения: Достоверный (C2: нет, Точный поток: да, Отключение кэша: да)
Коррекция смещения при чтении: 48
Способность читать области Lead-in и Lead-out : Нет
Выходной формат: Внутренние WAV-операции
44.100 Гц; 16 бит; стерео
Другие параметры:
Заполнение пропущенных сэмплов тишиной : Да
Удаление блоков с тишиной в начале и конце : Нет
Установленный внешний ASPI-интерфейс
Характеристики диапазона извлечения и сообщения об ошибках
Выбранный диапазон
Имя файла D:\Ильдар Южный - Избранное.wav
Пиковый уровень 99.9 %
Качество диапазона 100.0 %
CRC 734A5137
Копирование... OK
Ошибок не произошло
Конец отчёта

Отчёт auCDtect Task manager&#58;

Код:
-----------------------
DON'T MODIFY THIS FILE
-----------------------
PERFORMER: auCDtect Task Manager, ver. 1.6.0 RC1 build 1.6.0.1
Copyright (c) 2008-2010 y-soft. All rights reserved
http://y-soft.org
ANALYZER: auCDtect: CD records authenticity detector, version 0.8.2
Copyright (c) 2004 Oleg Berngardt. All rights reserved.
Copyright (c) 2004 Alexander Djourik. All rights reserved.
FILE: 2000 - Ильдар Южный - Избранное.wv
  Size: 394230659 Hash: 4ADDE41CCF766377530668B2FC6484FD Accuracy: -m0
  Conclusion: CDDA 100%
  Signature: 88141B01B2B25048075E3976D4EAF671DF4AE923

2000 - Новая Колода&#58;

Продолжительность: 00:51:04
Издатель (лейбл): Grand Records, Russia
]Каталог №: GRCD-128
Кодек: WavPack (*.wv)
Битрейт: lossless
Трек лист:
1. Водочка 03:35
2. Черная киса 03:32
3. Сусуман 05:14
4. Эх, масть бубновая 03:12
5. Баночка с чифиром 03:37
6. За перегоном-перегон 04:01
7. Марьина роща 03:41
8. Летите голуби 04:02
9. Катала 03:18
10. Ангел мой 04:55
11. Бояре-купола 03:47
12. Антракт 03:08

Отчёт ЕАС&#58;

Код:
Exact Audio Copy V0.99 prebeta 4 from 23. January 2008
Отчёт EAC об извлечении, выполненном 15. марта 2008, 20:45
И.Южный и гр.Марьина роща / Новая колода
Дисковод: HL-DT-STDVDRAM GSA-4167B Adapter: 1 ID: 1
Режим чтения : Достоверность
Использование точного потока : Да
Отключение кэша аудио : Да
Использование указателей C2 : Нет
Коррекция смещения при чтении : 667
Способность читать области Lead-in и Lead-out : Нет
Заполнение пропущенных сэмплов тишиной : Да
Удаление блоков с тишиной в начале и конце : Нет
При вычислениях CRC использовались нулевые сэмплы : Да
Интерфейс : Встроенный Win32-интерфейс для Win NT/2000
Выходной формат : Внутренние WAV-операции
Формат сэмплов : 44.100 Гц; 16 бит; стерео
TOC извлечённого CD
Трек | Старт | Длительность | Начальный сектор | Конечный сектор
---------------------------------------------------------------------
1 | 0:00.00 | 3:35.10 | 0 | 16134
2 | 3:35.10 | 3:32.48 | 16135 | 32082
3 | 7:07.58 | 5:14.28 | 32083 | 55660
4 | 12:22.11 | 3:12.50 | 55661 | 70110
5 | 15:34.61 | 3:37.52 | 70111 | 86437
6 | 19:12.38 | 4:01.34 | 86438 | 104546
7 | 23:13.72 | 3:41.04 | 104547 | 121125
8 | 26:55.01 | 4:02.40 | 121126 | 139315
9 | 30:57.41 | 3:18.16 | 139316 | 154181
10 | 34:15.57 | 4:55.22 | 154182 | 176328
11 | 39:11.04 | 3:47.06 | 176329 | 193359
12 | 42:58.10 | 3:08.71 | 193360 | 207530
Характеристики диапазона извлечения и сообщения об ошибках
Выбранный диапазон
Имя файла C:\Documents and Settings\Vladimir\Рабочий стол\I.Jzhnyj_[[стерилизуемый трекер].org]\И.Южный и гр.Марьина роща - Новая колода.wav
Пиковый уровень 100.0 %
Качество диапазона 100.0 %
CRC теста ABBDE8B6
CRC копии ABBDE8B6
Копирование... OK
Ошибок не произошло
Конец отчёта

Отчёт auCDtect Task manager&#58;

Код:
-----------------------
DON'T MODIFY THIS FILE
-----------------------
PERFORMER: auCDtect Task Manager, ver. 1.6.0 RC1 build 1.6.0.1
Copyright (c) 2008-2010 y-soft. All rights reserved
http://y-soft.org
ANALYZER: auCDtect: CD records authenticity detector, version 0.8.2
Copyright (c) 2004 Oleg Berngardt. All rights reserved.
Copyright (c) 2004 Alexander Djourik. All rights reserved.
FILE: 2001 - Ильдар Южный - Новая Колода.wv
  Size: 334314312 Hash: 90C36D18E72671EA585992E6B67207FC Accuracy: -m0
  Conclusion: CDDA 100%
  Signature: 73B1C703302B26A2934A28083BE3FEE503F5CFF4

2001 - Всё было....?!&#58;

Продолжительность: 00:47:35
Издатель (лейбл): Русская Изба
]Каталог №: RI 0101
Кодек: WavPack (*.wv)
Битрейт: lossless
Трек лист:
1. Там за сопками 02:35
2. Грустное ретро 02:06
3. Возвращаюсь 03:51
4. В полный голос 02:34
5. Валин вальсок 02:43
6. Детдомовский мотив 03:00
7. Сны 03:37
8. Реченька 02:48
9. Мой брат 03:49
10. Начнём с начала 02:34
11. Чужие города 03:07
12. Северная роза 03:14
13. 15 лет 02:46
14. Блудный сын 04:07
15. Прощальный вечер 04:09

Отчёт ЕАС&#58;

Код:
Exact Audio Copy V0.99 prebeta 5 from 4. May 2009
Отчёт EAC об извлечении, выполненном 17. января 2010, 23:45
Ильдар Южный и гр. «Марьина роща»  / Всё было....?!
Дисковод: _NEC    DVD_RW ND-3500AG   Adapter: 3  ID: 0
Режим чтения                 : Достоверность
Использование точного потока : Да
Отключение кэша аудио        : Да
Использование указателей C2  : Нет
Коррекция смещения при чтении                     : 48
Способность читать области Lead-in и Lead-out     : Нет
Заполнение пропущенных сэмплов тишиной            : Да
Удаление блоков с тишиной в начале и конце        : Нет
При вычислениях CRC использовались нулевые сэмплы : Да
Интерфейс                                         : Установленный внешний ASPI-интерфейс
Выходной формат : Внутренние WAV-операции
Формат сэмплов  : 44.100 Гц; 16 бит; стерео
TOC извлечённого CD
     Трек |   Старт  | Длительность | Начальный сектор | Конечный сектор
    ---------------------------------------------------------------------
       1  |  0:00.00 |    2:37.57   |           0      |      11831
       2  |  2:37.57 |    2:08.46   |       11832      |      21477
       3  |  4:46.28 |    3:53.55   |       21478      |      39007
       4  |  8:40.08 |    2:36.42   |       39008      |      50749
       5  | 11:16.50 |    2:45.09   |       50750      |      63133
       6  | 14:01.59 |    3:02.43   |       63134      |      76826
       7  | 17:04.27 |    3:39.44   |       76827      |      93295
       8  | 20:43.71 |    2:50.10   |       93296      |     106055
       9  | 23:34.06 |    3:51.47   |      106056      |     123427
      10  | 27:25.53 |    2:36.68   |      123428      |     135195
      11  | 30:02.46 |    3:09.40   |      135196      |     149410
      12  | 33:12.11 |    3:16.14   |      149411      |     164124
      13  | 36:28.25 |    2:48.34   |      164125      |     176758
      14  | 39:16.59 |    4:09.25   |      176759      |     195458
      15  | 43:26.09 |    4:09.48   |      195459      |     214181
Характеристики диапазона извлечения и сообщения об ошибках
Выбранный диапазон
     Имя файла C:\Documents and Settings\Admin\Рабочий стол\И.Южный\Всё было\Ильдар Южный и гр. «Марьина роща»  - Всё было.... !.wav
     Пиковый уровень 99.8 %
     Качество диапазона 99.9 %
     CRC теста 63F7E1B7
     CRC копии 63F7E1B7
     Копирование... OK
Ошибок не произошло
Конец отчёта

Отчёт auCDtect Task manager&#58;

Код:
-----------------------
DON'T MODIFY THIS FILE
-----------------------
PERFORMER: auCDtect Task Manager, ver. 1.6.0 RC1 build 1.6.0.1
Copyright (c) 2008-2010 y-soft. All rights reserved
http://y-soft.org
ANALYZER: auCDtect: CD records authenticity detector, version 0.8.2
Copyright (c) 2004 Oleg Berngardt. All rights reserved.
Copyright (c) 2004 Alexander Djourik. All rights reserved.
FILE: 2001 - Ильдар Южный - Всё было....!.wv
  Size: 341102505 Hash: 38E40E18F5804FC4ECB4206D43EC86A0 Accuracy: -m0
  Conclusion: CDDA 100%
  Signature: CF20395BB165DB70B6352743621D5C0EE0C47C31

2002 - Старик&#58;

Продолжительность: 00:41:00
Издатель (лейбл): Фоно, Russia
]Каталог №: FO43CD
Кодек: WavPack (*.wv)
Битрейт: lossless
Трек лист:
1. Моя татуировочка 02:29
2. Бесшабашный голос (памяти А.Северного) 02:41
3. Старик 05:08
4. Орел и решка 03:57
5. Гвоздик 02:39
6. Законник 03:38
7. Тэрс 03:28
8. Заочница 04:01
9. Приговор 03:20
10. Ростовская быль 02:26
11. Посреди деляны 03:13
12. Прощенный день 03:54

Отчёт ЕАС&#58;

Код:
Отчёт EAC об извлечении, выполненном 11. февраля 2009, 18:59 для диска:
Ильдар Южный / Старик
Дисковод: _NEC DVD_RW ND-3540A Adapter: 0 ID: 0
Режим чтения: Достоверный (C2: нет, Точный поток: да, Отключение кэша: да)
Коррекция смещения при чтении: 48
Способность читать области Lead-in и Lead-out : Нет
Выходной формат: Внутренние WAV-операции
44.100 Гц; 16 бит; стерео
Другие параметры:
Заполнение пропущенных сэмплов тишиной : Да
Удаление блоков с тишиной в начале и конце : Нет
Установленный внешний ASPI-интерфейс
Характеристики диапазона извлечения и сообщения об ошибках
Выбранный диапазон
Имя файла D:\Ильдар Южный - Старик.wav
Пиковый уровень 100.0 %
Качество диапазона 100.0 %
CRC D683D64A
Копирование... OK
Ошибок не произошло
Конец отчёта

Отчёт auCDtect Task manager&#58;

Код:
-----------------------
DON'T MODIFY THIS FILE
-----------------------
PERFORMER: auCDtect Task Manager, ver. 1.6.0 RC1 build 1.6.0.1
Copyright (c) 2008-2010 y-soft. All rights reserved
http://y-soft.org
ANALYZER: auCDtect: CD records authenticity detector, version 0.8.2
Copyright (c) 2004 Oleg Berngardt. All rights reserved.
Copyright (c) 2004 Alexander Djourik. All rights reserved.
FILE: 2002 - Ильдар Южный - Старик.wv
  Size: 290809508 Hash: B41258BE37C94BB793FDA28BAEAAF9E5 Accuracy: -m0
  Conclusion: CDDA 100%
  Signature: 42B5562FAE4D116697C787C0317AF5629494E99B

2004 - Затерянный рай&#58;

Продолжительность: 00:45:00
Издатель (лейбл): Classic Company
]Каталог №: CC CD 37/04
Кодек: WavPack (*.wv)
Битрейт: lossless
Трек лист:
1. Монте Кристо 03:35
2. Кто такой? 02:19
3. Отец 03:55
4. Полосатый рейс 03:37
5. Я вспоминаю Магадан 04:49
6. Блатной романс 04:10
7. Просыпайся,братан 03:43
8. Как я любил 03:54
9. Затеряный рай 04:11
10. Время рекой течёт 02:51
11. Одесская быль 03:40
12. Сусуман 04:09

Отчёт ЕАС&#58;

Код:
Отчёт EAC об извлечении, выполненном 18. февраля 2009, 3:38 для диска:
Ильдар Южный / Затерянный рай
Дисковод: _NEC DVD_RW ND-3540A Adapter: 0 ID: 0
Режим чтения: Достоверный (C2: нет, Точный поток: да, Отключение кэша: да)
Коррекция смещения при чтении: 48
Способность читать области Lead-in и Lead-out : Нет
Выходной формат: Внутренние WAV-операции
44.100 Гц; 16 бит; стерео
Другие параметры:
Заполнение пропущенных сэмплов тишиной : Да
Удаление блоков с тишиной в начале и конце : Нет
Установленный внешний ASPI-интерфейс
Характеристики диапазона извлечения и сообщения об ошибках
Выбранный диапазон
Имя файла D:\Ильдар Южный - Затерянный рай.wav
Пиковый уровень 99.8 %
Качество диапазона 100.0 %
CRC 89D3E3CA
Копирование... OK
Ошибок не произошло
Конец отчёта

Отчёт auCDtect Task manager&#58;

Код:
-----------------------
DON'T MODIFY THIS FILE
-----------------------
PERFORMER: auCDtect Task Manager, ver. 1.6.0 RC1 build 1.6.0.1
Copyright (c) 2008-2010 y-soft. All rights reserved
http://y-soft.org
ANALYZER: auCDtect: CD records authenticity detector, version 0.8.2
Copyright (c) 2004 Oleg Berngardt. All rights reserved.
Copyright (c) 2004 Alexander Djourik. All rights reserved.
FILE: 2004 - Ильдар Южный - Затерянный рай.wv
  Size: 303311697 Hash: B26EC0C1E5871DD14601EACD1224D6C5 Accuracy: -m0
  Conclusion: CDDA 100%
  Signature: A443598F6221277D558D58A16BC27D3F74B47CB0

2006 - Вспомнить старое... Лучшее&#58;

Продолжительность: 01:15:43
Издатель (лейбл): Альфа Рекордз, Russia
]Каталог №: AL-091
Кодек: WavPack (*.wv)
Битрейт: lossless
Трек лист:
1. Такси - 2 (Шеф) 03:28
2. Чёрная киса 03:32
3. Сусуман - 1 06:31
4. Бояре - купола 03:46
5. Моя татуировочка 02:31
6. Старик 05:07
7. Приговор 03:20
8. Сокольники 03:27
9. Орёл и решка 03:59
10. Блудный сын 04:07
11. За перегоном перегон 03:52
12. Ангел мой 04:43
13. Эх, масть бубновая 03:10
14. Постели нам постель 05:47
15. Баночка с чифиром 04:10
16. Високосный год 04:45
17. Летите, голуби 05:41
18. Марьина роща 03:39

Отчёт ЕАС&#58;

Код:
Exact Audio Copy V0.99 prebeta 4 from 23. January 2008
Отчёт EAC об извлечении, выполненном 10. июня 2009, 16:54
Ильдар Южный / Вспомнить старое... Лучшее
Дисковод: TEAC    DV-W520GM   Adapter: 4  ID: 2
Режим чтения                 : Достоверность
Использование точного потока : Да
Отключение кэша аудио        : Да
Использование указателей C2  : Нет
Коррекция смещения при чтении                     : 6
Способность читать области Lead-in и Lead-out     : Нет
Заполнение пропущенных сэмплов тишиной            : Да
Удаление блоков с тишиной в начале и конце        : Нет
При вычислениях CRC использовались нулевые сэмплы : Да
Интерфейс                                         : Установленный внешний ASPI-интерфейс
Выходной формат : Внутренние WAV-операции
Формат сэмплов  : 44.100 Гц; 16 бит; стерео
TOC извлечённого CD
     Трек |   Старт  | Длительность | Начальный сектор | Конечный сектор
    ---------------------------------------------------------------------
       1  |  0:00.00 |    3:28.52   |           0      |      15651
       2  |  3:28.52 |    3:32.21   |       15652      |      31572
       3  |  7:00.73 |    6:31.13   |       31573      |      60910
       4  | 13:32.11 |    3:46.02   |       60911      |      77862
       5  | 17:18.13 |    2:31.20   |       77863      |      89207
       6  | 19:49.33 |    5:07.21   |       89208      |     112253
       7  | 24:56.54 |    3:20.54   |      112254      |     127307
       8  | 28:17.33 |    3:27.09   |      127308      |     142841
       9  | 31:44.42 |    3:59.50   |      142842      |     160816
      10  | 35:44.17 |    4:07.04   |      160817      |     179345
      11  | 39:51.21 |    3:52.16   |      179346      |     196761
      12  | 43:43.37 |    4:43.50   |      196762      |     218036
      13  | 48:27.12 |    3:10.65   |      218037      |     232351
      14  | 51:38.02 |    5:47.58   |      232352      |     258434
      15  | 57:25.60 |    4:10.45   |      258435      |     277229
      16  | 61:36.30 |    4:45.20   |      277230      |     298624
      17  | 66:21.50 |    5:41.56   |      298625      |     324255
      18  | 72:03.31 |    3:39.27   |      324256      |     340707
Характеристики диапазона извлечения и сообщения об ошибках
Выбранный диапазон
     Имя файла T:\SHANSON\Южный Ильдар\2006 - Ильдар Южный - Вспомнить старое... Лучшее\Ильдар Южный - Вспомнить старое... Лучшее.wav
     Пиковый уровень 96.6 %
     Качество диапазона 100.0 %
     CRC теста 94BEFF9B
     CRC копии 94BEFF9B
     Копирование... OK
Ошибок не произошло
AccurateRip: сводка
Трек  1  нет в базе данных
Трек  2  нет в базе данных
Трек  3  нет в базе данных
Трек  4  нет в базе данных
Трек  5  нет в базе данных
Трек  6  нет в базе данных
Трек  7  нет в базе данных
Трек  8  нет в базе данных
Трек  9  нет в базе данных
Трек 10  нет в базе данных
Трек 11  нет в базе данных
Трек 12  нет в базе данных
Трек 13  нет в базе данных
Трек 14  нет в базе данных
Трек 15  нет в базе данных
Трек 16  нет в базе данных
Трек 17  нет в базе данных
Трек 18  нет в базе данных
Ни одного трека нет в базе AccurateRip
Конец отчёта

Отчёт auCDtect Task manager&#58;

Код:
-----------------------
DON'T MODIFY THIS FILE
-----------------------
PERFORMER: auCDtect Task Manager, ver. 1.6.0 RC1 build 1.6.0.1
Copyright (c) 2008-2010 y-soft. All rights reserved
http://y-soft.org
ANALYZER: auCDtect: CD records authenticity detector, version 0.8.2
Copyright (c) 2004 Oleg Berngardt. All rights reserved.
Copyright (c) 2004 Alexander Djourik. All rights reserved.
FILE: 2006 - Ильдар Южный - Вспомнить старое... Лучшее.wv
  Size: 578708820 Hash: 97DA4B6062C99F80B0C6B02BA7DE285A Accuracy: -m0
  Conclusion: CDDA 100%
  Signature: 8B16B10531CF7D746536BD2900296D6325ACB234

2006 - Настроение шансон&#58;

Продолжительность: 01:07:23
Издатель (лейбл): Никитин
]Каталог №: ТФН-CD450/06
Кодек: WavPack (*.wv)
Битрейт: lossless
Трек лист:
1. Эх, масть бубновая 03:08
2. Сокольники 03:27
3. Блудный сын 04:05
4. Бояре-купола 03:48
5. Тэрс 03:28
6. Летите, голуби 05:40
7. За перегоном-перегон 03:49
8. Постели нам постель 05:45
9. Бесшабашный голос (памяти А.Северного) 02:39
10. Ангел мой 04:40
11. Детдомовский мотив 02:57
12. Моя татуировочка 02:29
13. Старик 05:06
14. Прощальный вечер 04:27
15. Водочка 03:31
16. Заочница 04:00
17. Пасха 03:44

Отчёт ЕАС&#58;

Код:
Exact Audio Copy V0.99 prebeta 4 from 23. January 2008
Отчёт EAC об извлечении, выполненном 29. марта 2009, 13:17
Ильдар Южный / Настроение шансон
Дисковод: Optiarc DVD RW AD-7201S   Adapter: 5  ID: 0
Режим чтения                 : Достоверность
Использование точного потока : Да
Отключение кэша аудио        : Да
Использование указателей C2  : Нет
Коррекция смещения при чтении                     : 48
Способность читать области Lead-in и Lead-out     : Нет
Заполнение пропущенных сэмплов тишиной            : Да
Удаление блоков с тишиной в начале и конце        : Нет
При вычислениях CRC использовались нулевые сэмплы : Да
Интерфейс                                         : Установленный внешний ASPI-интерфейс
Выходной формат : Внутренние WAV-операции
Формат сэмплов  : 44.100 Гц; 16 бит; стерео
TOC извлечённого CD
     Трек |   Старт  | Длительность | Начальный сектор | Конечный сектор
    ---------------------------------------------------------------------
       1  |  0:00.00 |    3:10.13   |           0      |      14262
       2  |  3:10.13 |    3:29.30   |       14263      |      29967
       3  |  6:39.43 |    4:07.45   |       29968      |      48537
       4  | 10:47.13 |    3:50.52   |       48538      |      65839
       5  | 14:37.65 |    3:30.31   |       65840      |      81620
       6  | 18:08.21 |    5:42.27   |       81621      |     107297
       7  | 23:50.48 |    3:51.50   |      107298      |     124672
       8  | 27:42.23 |    5:47.52   |      124673      |     150749
       9  | 33:30.00 |    2:41.40   |      150750      |     162864
      10  | 36:11.40 |    4:42.72   |      162865      |     184086
      11  | 40:54.37 |    2:59.20   |      184087      |     197531
      12  | 43:53.57 |    2:31.35   |      197532      |     208891
      13  | 46:25.17 |    5:08.17   |      208892      |     232008
      14  | 51:33.34 |    4:29.68   |      232009      |     252251
      15  | 56:03.27 |    3:33.05   |      252252      |     268231
      16  | 59:36.32 |    4:02.51   |      268232      |     286432
      17  | 63:39.08 |    3:44.16   |      286433      |     303248
Характеристики диапазона извлечения и сообщения об ошибках
Выбранный диапазон
     Имя файла D:\Ильдар Южный - Настроение шансон.wav
     Пиковый уровень 100.0 %
     Качество диапазона 100.0 %
     CRC копии 76AEF1CC
     Копирование... OK
Ошибок не произошло
Конец отчёта

Отчёт auCDtect Task manager&#58;

Код:
-----------------------
DON'T MODIFY THIS FILE
-----------------------
PERFORMER: auCDtect Task Manager, ver. 1.6.0 RC1 build 1.6.0.1
Copyright (c) 2008-2010 y-soft. All rights reserved
http://y-soft.org
ANALYZER: auCDtect: CD records authenticity detector, version 0.8.2
Copyright (c) 2004 Oleg Berngardt. All rights reserved.
Copyright (c) 2004 Alexander Djourik. All rights reserved.
FILE: 2006 - Ильдар Южный - Настроение шансон.wv
  Size: 492093331 Hash: 6E07FF17553390B1DAB80AC0AD40B42E Accuracy: -m0
  Conclusion: CDDA 99%
  Signature: 23EB8C33F6D841C3A664865C967D78C0B447B301

2006 - Капкан&#58;

Продолжительность: 00:44:02
Издатель (лейбл): Master Sound Records, Монолит
]Каталог №: MS CD 697/06
Кодек: WavPack (*.wv)
Битрейт: lossless
Трек лист:
1. Судьба - злодейка 03:20
2. Старенький фокстрот 04:28
3. Оттепель 03:28
4. Зелёное сукно 03:20
5. Прости меня, дед 03:38
6. Устало сердце (памяти брата) 03:59
7. Такси 2 (Шеф) 03:32
8. Фикса 03:27
9. Железный нос 03:22
10. Возвратятся твои корабли 03:55
11. Привет, бродяги 03:23
12. Капкан 04:05

Отчёт ЕАС&#58;

Код:
Exact Audio Copy V0.99 prebeta 4 from 23. January 2008
Отчёт EAC об извлечении, выполненном 18. декабря 2008, 12:54
Ильдар Южный / Капкан
Дисковод: Optiarc DVD RW AD-7201S   Adapter: 3  ID: 0
Режим чтения                 : Достоверность
Использование точного потока : Да
Отключение кэша аудио        : Да
Использование указателей C2  : Нет
Коррекция смещения при чтении                     : 48
Способность читать области Lead-in и Lead-out     : Нет
Заполнение пропущенных сэмплов тишиной            : Да
Удаление блоков с тишиной в начале и конце        : Нет
При вычислениях CRC использовались нулевые сэмплы : Да
Интерфейс                                         : Установленный внешний ASPI-интерфейс
Выходной формат : Внутренние WAV-операции
Формат сэмплов  : 44.100 Гц; 16 бит; стерео
TOC извлечённого CD
     Трек |   Старт  | Длительность | Начальный сектор | Конечный сектор
    ---------------------------------------------------------------------
       1  |  0:00.00 |    3:20.39   |           0      |      15038
       2  |  3:20.39 |    4:28.03   |       15039      |      35141
       3  |  7:48.42 |    3:28.40   |       35142      |      50781
       4  | 11:17.07 |    3:20.43   |       50782      |      65824
       5  | 14:37.50 |    3:38.21   |       65825      |      82195
       6  | 18:15.71 |    3:59.44   |       82196      |     100164
       7  | 22:15.40 |    3:32.65   |      100165      |     116129
       8  | 25:48.30 |    3:27.71   |      116130      |     131725
       9  | 29:16.26 |    3:22.50   |      131726      |     146925
      10  | 32:39.01 |    3:55.08   |      146926      |     164558
      11  | 36:34.09 |    3:23.24   |      164559      |     179807
      12  | 39:57.33 |    4:05.03   |      179808      |     198185
Характеристики диапазона извлечения и сообщения об ошибках
Выбранный диапазон
     Имя файла C:\Documents and Settings\Admin\Рабочий стол\Ильдар Южный - Капкан.wav
     Пиковый уровень 98.8 %
     Качество диапазона 100.0 %
     CRC копии E57FB174
     Копирование... OK
Ошибок не произошло
Конец отчёта

Отчёт auCDtect Task manager&#58;

Код:
-----------------------
DON'T MODIFY THIS FILE
-----------------------
PERFORMER: auCDtect Task Manager, ver. 1.6.0 RC1 build 1.6.0.1
Copyright (c) 2008-2010 y-soft. All rights reserved
http://y-soft.org
ANALYZER: auCDtect: CD records authenticity detector, version 0.8.2
Copyright (c) 2004 Oleg Berngardt. All rights reserved.
Copyright (c) 2004 Alexander Djourik. All rights reserved.
FILE: 2006 - Ильдар Южный - Капкан.wv
  Size: 328152096 Hash: 48DAA59FD6BFA9BC5419C2FF3AE11602 Accuracy: -m0
  Conclusion: CDDA 100%
  Signature: 15D1E3BF84FF3B403ED26950D2E12708C0E0A746

2007 - Новое и лучшее&#58;

Продолжительность: 01:11:15
Издатель (лейбл): Master Sound Records, Монолит
]Каталог №: MS CD 723/07
Кодек: WavPack (*.wv)
Битрейт: lossless
Трек лист:
1. Бояре-купола 03:48
2. За перегоном-перегон 03:51
3. Сусуман 06:31
4. Такси 2 (Шеф) 03:30
5. Фикса 03:25
6. Високосный год 04:44
7. Моя татуировочка 02:31
8. Прости меня, дед 03:36
9. Устало сердце 03:57
10. Оттепель 03:26
11. Орёл и решка 03:57
12. Старик 05:09
13. Баночка с чифиром 03:37
14. Старенький фокстрот 04:26
15. Бесшабашный голос 02:41
16. Заочница 04:02
17. Посреди деляны 03:09
18. Блудный сын 04:10

Отчёт ЕАС&#58;

Код:
Exact Audio Copy V0.99 prebeta 4 from 23. January 2008
Отчёт EAC об извлечении, выполненном 26. марта 2009, 18:36
Ильдар Южный / Новое и лучшее
Дисковод: Optiarc DVD RW AD-7201S   Adapter: 5  ID: 0
Режим чтения                 : Достоверность
Использование точного потока : Да
Отключение кэша аудио        : Да
Использование указателей C2  : Нет
Коррекция смещения при чтении                     : 48
Способность читать области Lead-in и Lead-out     : Нет
Заполнение пропущенных сэмплов тишиной            : Да
Удаление блоков с тишиной в начале и конце        : Нет
При вычислениях CRC использовались нулевые сэмплы : Да
Интерфейс                                         : Установленный внешний ASPI-интерфейс
Выходной формат : Внутренние WAV-операции
Формат сэмплов  : 44.100 Гц; 16 бит; стерео
TOC извлечённого CD
     Трек |   Старт  | Длительность | Начальный сектор | Конечный сектор
    ---------------------------------------------------------------------
       1  |  0:00.00 |    3:50.50   |           0      |      17299
       2  |  3:50.50 |    3:53.53   |       17300      |      34827
       3  |  7:44.28 |    6:33.65   |       34828      |      64367
       4  | 14:18.18 |    3:32.65   |       64368      |      80332
       5  | 17:51.08 |    3:27.71   |       80333      |      95928
       6  | 21:19.04 |    4:46.53   |       95929      |     117431
       7  | 26:05.57 |    2:33.58   |      117432      |     128964
       8  | 28:39.40 |    3:38.21   |      128965      |     145335
       9  | 32:17.61 |    3:59.44   |      145336      |     163304
      10  | 36:17.30 |    3:28.40   |      163305      |     178944
      11  | 39:45.70 |    3:59.72   |      178945      |     196941
      12  | 43:45.67 |    5:11.57   |      196942      |     220323
      13  | 48:57.49 |    3:39.12   |      220324      |     236760
      14  | 52:36.61 |    4:28.03   |      236761      |     256863
      15  | 57:04.64 |    2:43.30   |      256864      |     269118
      16  | 59:48.19 |    4:04.34   |      269119      |     287452
      17  | 63:52.53 |    3:11.49   |      287453      |     301826
      18  | 67:04.27 |    4:10.12   |      301827      |     320588
Характеристики диапазона извлечения и сообщения об ошибках
Выбранный диапазон
     Имя файла D:\Ильдар Южный - Новое и лучшее.wav
     Пиковый уровень 98.8 %
     Качество диапазона 100.0 %
     CRC копии E3ED1730
     Копирование... OK
Ошибок не произошло
Конец отчёта

Отчёт auCDtect Task manager&#58;

Код:
-----------------------
DON'T MODIFY THIS FILE
-----------------------
PERFORMER: auCDtect Task Manager, ver. 1.6.0 RC1 build 1.6.0.1
Copyright (c) 2008-2010 y-soft. All rights reserved
http://y-soft.org
ANALYZER: auCDtect: CD records authenticity detector, version 0.8.2
Copyright (c) 2004 Oleg Berngardt. All rights reserved.
Copyright (c) 2004 Alexander Djourik. All rights reserved.
FILE: 2007 - Ильдар Южный - Новое и лучшее.wv
  Size: 519610737 Hash: 771705CFB2D37C25DDA8BA772F5DBE20 Accuracy: -m0
  Conclusion: CDDA 100%
  Signature: 8B07C33A42297ED5108387741668E554C2FA70DA

2008 - Не забывай меня&#58;

Продолжительность: 00:41:31
Издатель (лейбл): Master Sound Records, Монолит
]Каталог №: MS CD 120/08
Кодек: WavPack (*.wv)
Битрейт: lossless
Трек лист:
1. Таежный край 03:27
2. Пара голубей 03:52
3. Холодный ветер 03:21
4. Первая любовь 03:54
5. Подстилка 03:28
6. Воровайки-мотыльки 03:23
7. Раз, два, три 03:07
8. Не забывай меня 03:13
9. Золотые дни 03:04
10. Привет, Самара 03:38
11. Школьный вальс 03:14
12. Такси-3 03:23

Отчёт ЕАС&#58;

Код:
Exact Audio Copy V0.99 prebeta 4 from 23. January 2008
Отчёт EAC об извлечении, выполненном 13. декабря 2008, 22:34
Ильдар Южный / Не забывай меня
Дисковод: Optiarc DVD RW AD-7201S   Adapter: 3  ID: 0
Режим чтения                 : Достоверность
Использование точного потока : Да
Отключение кэша аудио        : Да
Использование указателей C2  : Нет
Коррекция смещения при чтении                     : 48
Способность читать области Lead-in и Lead-out     : Нет
Заполнение пропущенных сэмплов тишиной            : Да
Удаление блоков с тишиной в начале и конце        : Нет
При вычислениях CRC использовались нулевые сэмплы : Да
Интерфейс                                         : Установленный внешний ASPI-интерфейс
Выходной формат : Внутренние WAV-операции
Формат сэмплов  : 44.100 Гц; 16 бит; стерео
TOC извлечённого CD
     Трек |   Старт  | Длительность | Начальный сектор | Конечный сектор
    ---------------------------------------------------------------------
       1  |  0:00.00 |    3:29.68   |           0      |      15742
       2  |  3:29.68 |    3:54.32   |       15743      |      33324
       3  |  7:24.25 |    3:23.33   |       33325      |      48582
       4  | 10:47.58 |    3:56.40   |       48583      |      66322
       5  | 14:44.23 |    3:30.01   |       66323      |      82073
       6  | 18:14.24 |    3:25.64   |       82074      |      97512
       7  | 21:40.13 |    3:09.20   |       97513      |     111707
       8  | 24:49.33 |    3:15.31   |      111708      |     126363
       9  | 28:04.64 |    3:06.27   |      126364      |     140340
      10  | 31:11.16 |    3:40.07   |      140341      |     156847
      11  | 34:51.23 |    3:16.06   |      156848      |     171553
      12  | 38:07.29 |    3:23.18   |      171554      |     186796
Характеристики диапазона извлечения и сообщения об ошибках
Выбранный диапазон
     Имя файла C:\Documents and Settings\Admin\Рабочий стол\Ильдар Южный - Не забывай меня.wav
     Пиковый уровень 91.7 %
     Качество диапазона 100.0 %
     CRC копии 11F81F2D
     Копирование... OK
Ошибок не произошло
Конец отчёта

Отчёт auCDtect Task manager&#58;

Код:
-----------------------
DON'T MODIFY THIS FILE
-----------------------
PERFORMER: auCDtect Task Manager, ver. 1.6.0 RC1 build 1.6.0.1
Copyright (c) 2008-2010 y-soft. All rights reserved
http://y-soft.org
ANALYZER: auCDtect: CD records authenticity detector, version 0.8.2
Copyright (c) 2004 Oleg Berngardt. All rights reserved.
Copyright (c) 2004 Alexander Djourik. All rights reserved.
FILE: 2008 - Ильдар Южный - Не забывай меня.wv
  Size: 288675263 Hash: 4C0CD80C439A30C00BC17B80063CA259 Accuracy: -m0
  Conclusion: CDDA 100%
  Signature: 274A273C0ED08ECEA29430FC2952D9379272ADAD

2011 - Босанова&#58;

Продолжительность: 00:41:38
Издатель (лейбл): ФМ Продакшн
Кодек: FLAC (*.flac)
Битрейт: lossless
Трек лист:
1. Цветы на белом платье (2:34)
2. Полёт (2:50)
3. Прости (3:59)
4. Бесприданница (2:52)
5. Девочка поющая шансон (2:38)
6. Босанова (2:46)
7. Для нас с тобой (3:04)
8. Пилигрим (3:02)
9. Будьте счастливы (2:47)
10. Судьба (3:04)
11. Дворик детства (3:30)
12. История любви (3:03)
13. Будьте счастливы (караоке) (2:47)
14. Босанова (караоке) (2:44)

Отчёт ЕАС&#58;

Код:
Exact Audio Copy V1.0 beta 1 from 15. November 2010
Отчёт EAC об извлечении, выполненном 27. июня 2011, 1:24
Ильдар Южный / Босанова
Дисковод: _NEC    DV-5800E   Adapter: 0  ID: 1
Режим чтения                 : Достоверность
Использование точного потока : Да
Отключение кэша аудио        : Да
Использование указателей C2  : Нет
Коррекция смещения при чтении                     : 6
Способность читать области Lead-in и Lead-out     : Нет
Заполнение пропущенных сэмплов тишиной            : Да
Удаление блоков с тишиной в начале и конце        : Нет
При вычислениях CRC использовались нулевые сэмплы : Да
Интерфейс                                         : Установленный внешний ASPI-интерфейс
Выходной формат : Внутренние WAV-операции
Формат сэмплов  : 44.100 Гц; 16 бит; стерео
TOC извлечённого CD
     Трек |   Старт  | Длительность | Начальный сектор | Конечный сектор
    ---------------------------------------------------------------------
       1  |  0:00.00 |    2:33.45   |           0      |      11519
       2  |  2:33.45 |    2:50.29   |       11520      |      24298
       3  |  5:23.74 |    3:58.66   |       24299      |      42214
       4  |  9:22.65 |    2:52.00   |       42215      |      55114
       5  | 12:14.65 |    2:38.03   |       55115      |      66967
       6  | 14:52.68 |    2:45.42   |       66968      |      79384
       7  | 17:38.35 |    3:03.54   |       79385      |      93163
       8  | 20:42.14 |    3:01.51   |       93164      |     106789
       9  | 23:43.65 |    2:46.42   |      106790      |     119281
      10  | 26:30.32 |    3:04.23   |      119282      |     133104
      11  | 29:34.55 |    3:29.43   |      133105      |     148822
      12  | 33:04.23 |    3:03.22   |      148823      |     162569
      13  | 36:07.45 |    2:46.42   |      162570      |     175061
      14  | 38:54.12 |    2:43.42   |      175062      |     187328
Характеристики диапазона извлечения и сообщения об ошибках
Выбранный диапазон
     Имя файла C:\Documents and Settings\Admin\Рабочий стол\Ильдар Южный - Босанова (2011г.)\Ильдар Южный - Босанова.wav
     Пиковый уровень 98.8 %
0.6 X
     Качество диапазона 100.0 %
     CRC теста 781E55D2
     CRC копии 781E55D2
     Копирование... OK
Ошибок не произошло
AccurateRip: сводка
Трек  1  нет в базе данных
Трек  2  нет в базе данных
Трек  3  нет в базе данных
Трек  4  нет в базе данных
Трек  5  нет в базе данных
Трек  6  нет в базе данных
Трек  7  нет в базе данных
Трек  8  нет в базе данных
Трек  9  нет в базе данных
Трек 10  нет в базе данных
Трек 11  нет в базе данных
Трек 12  нет в базе данных
Трек 13  нет в базе данных
Трек 14  нет в базе данных
Ни одного трека нет в базе AccurateRip
Конец отчёта

Отчёт auCDtect Task manager&#58;

Код:
-----------------------
DON'T MODIFY THIS FILE
-----------------------
PERFORMER: auCDtect Task Manager, ver. 1.6.0 RC1 build 1.6.0.1
Copyright (c) 2008-2010 y-soft. All rights reserved
http://y-soft.org
ANALYZER: auCDtect: CD records authenticity detector, version 0.8.2
Copyright (c) 2004 Oleg Berngardt. All rights reserved.
Copyright (c) 2004 Alexander Djourik. All rights reserved.
FILE: Ильдар Южный - Босанова.flac
  Size: 323413196 Hash: 5C199D22A576AFCA2C4EF54771D6B1BB Accuracy: -m0
  Conclusion: MPEG 95%
  Signature: 106BC1EB8F8C056510762B439CBC0E668593039C

Спектры

 

2012 - Лавочки - скамеечки&#58;

Продолжительность: 00:42:22
Издатель (лейбл): Classic Company
]Каталог №: CC CD 37/12
Кодек: FLAC (*.flac)
Битрейт: lossless
Трек лист:
1. Бояре купола (3:23)
2. Во дворе (3:18)
3. Позови меня (3:29)
4. Побежали ручьи (3:45)
5. Прости - забудь (3:24)
6. Навсегда (4:52)
7. Я уеду (3:30)
8. Ты моё всё (2:39)
9. Лавочки - скамеечки (3:53)
10. Не забывай (3:05)
11. Между счастьем и бедой (3:40)
12. Песня лебединая (3:21)

Отчёт ЕАС&#58;

Код:
Exact Audio Copy V1.0 beta 3 from 29. August 2011
Отчёт EAC об извлечении, выполненном 27. ноября 2012, 14:17
Ильдар Южный / Лавочки - скамеечки
Дисковод: ASUS    DRW-1814BLT   Adapter: 2  ID: 0
Режим чтения                 : Достоверность
Использование точного потока : Да
Отключение кэша аудио        : Да
Использование указателей C2  : Нет
Коррекция смещения при чтении                     : 6
Способность читать области Lead-in и Lead-out     : Нет
Заполнение пропущенных сэмплов тишиной            : Да
Удаление блоков с тишиной в начале и конце        : Нет
При вычислениях CRC использовались нулевые сэмплы : Да
Интерфейс                                         : Встроенный Win32-интерфейс для Win NT/2000
Выходной формат : Внутренние WAV-операции
Формат сэмплов  : 44.100 Гц; 16 бит; стерео
TOC извлечённого CD
     Трек |   Старт  | Длительность | Начальный сектор | Конечный сектор
    ---------------------------------------------------------------------
       1  |  0:00.00 |    3:23.00   |           0      |      15224
       2  |  3:23.00 |    3:17.59   |       15225      |      30058
       3  |  6:40.59 |    3:29.35   |       30059      |      45768
       4  | 10:10.19 |    3:45.32   |       45769      |      62675
       5  | 13:55.51 |    3:24.00   |       62676      |      77975
       6  | 17:19.51 |    4:52.00   |       77976      |      99875
       7  | 22:11.51 |    3:30.31   |       99876      |     115656
       8  | 25:42.07 |    2:39.25   |      115657      |     127606
       9  | 28:21.32 |    3:53.04   |      127607      |     145085
      10  | 32:14.36 |    3:05.37   |      145086      |     158997
      11  | 35:19.73 |    3:40.37   |      158998      |     175534
      12  | 39:00.35 |    3:21.34   |      175535      |     190643
Характеристики диапазона извлечения и сообщения об ошибках
Выбранный диапазон
     Имя файла H:\Lossless\1. Шансон, Авторская и Военная песня\Русский шансон\Русский шансон (У-Ф-Х-Ц-Ч-Ш-Щ-Э-Ю-Я)\Ильдар Южный\2012 - Южный Ильдар - Лавочки - скамеечки\Ильдар Южный - Лавочки - скамеечки.wav
     Пиковый уровень 98.8 %
     Скорость извлечения 4.5 X
     Качество диапазона 100.0 %
     CRC теста 32E98E33
     CRC копии 32E98E33
     Копирование... OK
Ошибок не произошло
AccurateRip: сводка
Трек  1  отсутствует в базе данных
Трек  2  отсутствует в базе данных
Трек  3  отсутствует в базе данных
Трек  4  отсутствует в базе данных
Трек  5  отсутствует в базе данных
Трек  6  отсутствует в базе данных
Трек  7  отсутствует в базе данных
Трек  8  отсутствует в базе данных
Трек  9  отсутствует в базе данных
Трек 10  отсутствует в базе данных
Трек 11  отсутствует в базе данных
Трек 12  отсутствует в базе данных
Ни одного трека нет в базе AccurateRip
Конец отчёта
==== Контрольная сумма отчёта 472C0A9FBFD35CBBC40132B290855570B3FDAD9F1B7093C9F88280DD248EE9D1 ====

Отчёт auCDtect Task manager&#58;

Код:
-----------------------
DON'T MODIFY THIS FILE
-----------------------
PERFORMER: auCDtect Task Manager, ver. 1.6.0 RC1 build 1.6.0.1
Copyright (c) 2008-2010 y-soft. All rights reserved
http://y-soft.org
ANALYZER: auCDtect: CD records authenticity detector, version 0.8.2
Copyright (c) 2004 Oleg Berngardt. All rights reserved.
Copyright (c) 2004 Alexander Djourik. All rights reserved.
FILE: Ильдар Южный - Лавочки - скамеечки.flac
  Size: 345223364 Hash: 1D99345DCA03BEED51DB086102438B0D Accuracy: -m0
  Conclusion: CDDA 100%
  Signature: 64A5F0B63074B57FD8D8E8BA09134405839DECD0

2012 - Золотой фонд Гостелерадио СССР&#58;

Продолжительность: 00:41:17
Издатель (лейбл): ФМ Продакшн
Кодек: FLAC (*.flac)
Битрейт: lossless
Трек лист:
1. Спят курганы тёмные (3:25)
2. Каким меня ты ядом напоила (3:53)
3. У чёрного моря (3:02)
4. Осенняя роса (4:45)
5. Чёрным вороном ночь (3:31)
6. Куплеты Курочкина (3:29)
7. По тундре (5:51)
8. Как много девушек хороших (3:39)
9. Раскинулось море широко (3:53)
10. Любимый город (2:49)
11. Дорога домой (2:59)

Отчёт ЕАС&#58;

Код:
Exact Audio Copy V1.0 beta 3 from 29. August 2011
Отчёт EAC об извлечении, выполненном 13. января 2013, 17:40
Ильдар Южный / Золотой фонд Гостелерадио СССР
Дисковод: ASUS    DRW-1814BLT   Adapter: 1  ID: 1
Режим чтения                 : Достоверность
Использование точного потока : Да
Отключение кэша аудио        : Да
Использование указателей C2  : Нет
Коррекция смещения при чтении                     : 6
Способность читать области Lead-in и Lead-out     : Нет
Заполнение пропущенных сэмплов тишиной            : Да
Удаление блоков с тишиной в начале и конце        : Нет
При вычислениях CRC использовались нулевые сэмплы : Да
Интерфейс                                         : Встроенный Win32-интерфейс для Win NT/2000
Выходной формат : Внутренние WAV-операции
Формат сэмплов  : 44.100 Гц; 16 бит; стерео
TOC извлечённого CD
     Трек |   Старт  | Длительность | Начальный сектор | Конечный сектор
    ---------------------------------------------------------------------
       1  |  0:00.00 |    3:25.33   |           0      |      15407
       2  |  3:25.33 |    3:53.16   |       15408      |      32898
       3  |  7:18.49 |    3:02.17   |       32899      |      46565
       4  | 10:20.66 |    4:44.64   |       46566      |      67929
       5  | 15:05.55 |    3:31.00   |       67930      |      83754
       6  | 18:36.55 |    3:29.15   |       83755      |      99444
       7  | 22:05.70 |    5:51.04   |       99445      |     125773
       8  | 27:56.74 |    3:39.00   |      125774      |     142198
       9  | 31:35.74 |    3:52.63   |      142199      |     159661
      10  | 35:28.62 |    2:48.60   |      159662      |     172321
      11  | 38:17.47 |    2:59.11   |      172322      |     185757
Характеристики диапазона извлечения и сообщения об ошибках
Выбранный диапазон
     Имя файла C:\Ильдар Южный - Золотой фонд Гостелерадио СССР\Ильдар Южный - Золотой фонд Гостелерадио СССР.wav
     Пиковый уровень 98.8 %
     Скорость извлечения 4.1 X
     Качество диапазона 100.0 %
     CRC теста 90A23ADA
     CRC копии 90A23ADA
     Копирование... OK
Ошибок не произошло
AccurateRip: сводка
Трек  1  отсутствует в базе данных
Трек  2  отсутствует в базе данных
Трек  3  отсутствует в базе данных
Трек  4  отсутствует в базе данных
Трек  5  отсутствует в базе данных
Трек  6  отсутствует в базе данных
Трек  7  отсутствует в базе данных
Трек  8  отсутствует в базе данных
Трек  9  отсутствует в базе данных
Трек 10  отсутствует в базе данных
Трек 11  отсутствует в базе данных
Ни одного трека нет в базе AccurateRip
Конец отчёта
==== Контрольная сумма отчёта B0B1DE5DC501EFFC05C35C1B1D9C503583B0E76EBD782E8F7EDE73B40B282CF0 ====

Отчёт auCDtect Task manager&#58;

Код:
-----------------------
DON'T MODIFY THIS FILE
-----------------------
PERFORMER: auCDtect Task Manager, ver. 1.6.0 RC1 build 1.6.0.1
Copyright (c) 2008-2010 y-soft. All rights reserved
http://y-soft.org
ANALYZER: auCDtect: CD records authenticity detector, version 0.8.2
Copyright (c) 2004 Oleg Berngardt. All rights reserved.
Copyright (c) 2004 Alexander Djourik. All rights reserved.
FILE: Ильдар Южный - Золотой фонд Гостелерадио СССР.flac
  Size: 330129107 Hash: E4123C903D0F40C1AF041CFDDE61324C Accuracy: -m0
  Conclusion: CDDA 99%
  Signature: 8D0B2D688B15DB8AE0EEF2ABF0B4007772DFA9CB

2013 - The Best&#58;

Продолжительность: 01:12:26
Издатель (лейбл): Classic Company
]Каталог №: CC CD 17/13
Кодек: FLAC (*.flac)
Битрейт: lossless
Трек лист:
1. Навсегда
2. Каким меня ты ядом напоила
3. Босанова
4. Дворик детства
5. Рубаха
6. Чёрным вороном ночь
7. Не забывай
8. Цветы на белом платье
9. Дорога домой
10. Я уеду
11. Прости
12. Во дворе
13. Позови меня
14. Прости-забудь
15. Лавочки-скамеечки
16. Устало сердце
17. Бояре купола
18. Полёт

Отчёт ЕАС&#58;

Код:
Exact Audio Copy V1.0 beta 1 from 15. November 2010
Отчёт EAC об извлечении, выполненном 23. апреля 2013, 15:41
Ильдар Южный / The BEST
Дисковод: _NEC    DV-5800E   Adapter: 0  ID: 1
Режим чтения                 : Достоверность
Использование точного потока : Да
Отключение кэша аудио        : Да
Использование указателей C2  : Нет
Коррекция смещения при чтении                     : 6
Способность читать области Lead-in и Lead-out     : Нет
Заполнение пропущенных сэмплов тишиной            : Да
Удаление блоков с тишиной в начале и конце        : Нет
При вычислениях CRC использовались нулевые сэмплы : Да
Интерфейс                                         : Установленный внешний ASPI-интерфейс
Выходной формат : Внутренние WAV-операции
Формат сэмплов  : 44.100 Гц; 16 бит; стерео
TOC извлечённого CD
     Трек |   Старт  | Длительность | Начальный сектор | Конечный сектор
    ---------------------------------------------------------------------
       1  |  0:00.00 |    4:52.00   |           0      |      21899
       2  |  4:52.00 |    3:53.16   |       21900      |      39390
       3  |  8:45.16 |    2:43.37   |       39391      |      51652
       4  | 11:28.53 |    3:29.00   |       51653      |      67327
       5  | 14:57.53 |    4:12.50   |       67328      |      86277
       6  | 19:10.28 |    3:31.00   |       86278      |     102102
       7  | 22:41.28 |    3:05.37   |      102103      |     116014
       8  | 25:46.65 |    2:33.45   |      116015      |     127534
       9  | 28:20.35 |    3:01.11   |      127535      |     141120
      10  | 31:21.46 |    3:30.31   |      141121      |     156901
      11  | 34:52.02 |    3:58.00   |      156902      |     174751
      12  | 38:50.02 |    3:17.59   |      174752      |     189585
      13  | 42:07.61 |    3:29.35   |      189586      |     205295
      14  | 45:37.21 |    3:24.00   |      205296      |     220595
      15  | 49:01.21 |    3:53.04   |      220596      |     238074
      16  | 52:54.25 |    3:57.24   |      238075      |     255873
      17  | 56:51.49 |    3:23.00   |      255874      |     271098
      18  | 60:14.49 |    2:50.29   |      271099      |     283877
      19  | 63:05.03 |    2:51.00   |      283878      |     296702
      20  | 65:56.03 |    3:45.32   |      296703      |     313609
      21  | 69:41.35 |    2:44.42   |      313610      |     325951
Характеристики диапазона извлечения и сообщения об ошибках
Выбранный диапазон
     Имя файла C:\Documents and Settings\Admin\Рабочий стол\Южный Ильдар - The Best (2013г.)\Ильдар Южный - The BEST.wav
     Пиковый уровень 98.8 %
0.3 X
     Качество диапазона 99.9 %
     CRC теста 1C40D15F
     CRC копии 1C40D15F
     Копирование... OK
Ошибок не произошло
AccurateRip: сводка
Трек  1  нет в базе данных
Трек  2  нет в базе данных
Трек  3  нет в базе данных
Трек  4  нет в базе данных
Трек  5  нет в базе данных
Трек  6  нет в базе данных
Трек  7  нет в базе данных
Трек  8  нет в базе данных
Трек  9  нет в базе данных
Трек 10  нет в базе данных
Трек 11  нет в базе данных
Трек 12  нет в базе данных
Трек 13  нет в базе данных
Трек 14  нет в базе данных
Трек 15  нет в базе данных
Трек 16  нет в базе данных
Трек 17  нет в базе данных
Трек 18  нет в базе данных
Трек 19  нет в базе данных
Трек 20  нет в базе данных
Трек 21  нет в базе данных
Ни одного трека нет в базе AccurateRip
Конец отчёта

Отчёт auCDtect Task manager&#58;

Код:
-----------------------
DON'T MODIFY THIS FILE
-----------------------
PERFORMER: auCDtect Task Manager, ver. 1.5.1RC6 build 1.5.1.7
Copyright (c) 2008-2010 y-soft. All rights reserved
http://y-soft.org
ANALYZER: auCDtect: CD records authenticity detector, version 0.8.2
Copyright (c) 2004 Oleg Berngardt. All rights reserved.
Copyright (c) 2004 Alexander Djourik. All rights reserved.
FILE: Ильдар Южный - The BEST.flac
  Size: 607439916 Hash: 1D4C5212C11B0C4C586510237A1D3E24 Accuracy: -m0
  Conclusion: CDDA 100%
  Signature: 2224EFA345AD3D3DA5C2656D4C21EBFA6CF56B2D

Время раздачи: 24/7
Other forum [Profile] [PM]

Dracula

Longevity: 7 years 5 months

Posts: 11215

Торрент-статистика

Post 19-May-2013 07:54 (after 7 hours)

Топик был перенесен из форума Шансон в форум Музыка других жанров


p2000s
 
Display posts from previous:    
Reply to topic

The time now is: Today 07:17

All times are GMT + 3 Hours



You cannot post new topics in this forum
You cannot reply to topics in this forum
You cannot edit your posts in this forum
You cannot delete your posts in this forum
You cannot vote in polls in this forum
You cannot attach files in this forum
You cannot download files in this forum