Сегодня идет свободное скачивание без начисления Download

Южная звезда / The Southern Star (1969) DVDRip [H.264]

Ответить на тему
 
Автор
Сообщение

UndegraundMen ®

Стаж: 3 года 9 месяцев

Сообщений: 28329

Торрент-статистика

Пост 20-Май-2013 00:03

[Цитировать]

Южная звезда / The Southern Star (1969) DVDRip [H.264] -«Africa Seethes! Adventure Flames! In The Story Of 'The Southern Star'-The World's Most Prized Diamond!»- Русское название: Южная звезда
Оригинальное название: The Southern Star
Год выпуска: 1969
Жанр: Комедия, Приключения
Страна: Франция, Великобритания
Производство: Capitole Films, Columbia Pictures Corporation, Euro-France Films
Описание фильма:
В надежде неплохо заработать молодой геолог Дэн с группой товарищей отправляется на поиски огромного алмаза «Южная Звезда». Кроме того герой влюблен в дочь финансиста, который нанял этот поисковый отряд. Удача улыбается Дэну — он находит алмаз. Но на вечеринке в честь успешного завершения экспедиции алмаз пропадает. Все подозрения падают на Дэна. Теперь ему необходимо сделать все, чтобы доказать свою невиновность и завоевать сердце любимой.
Режиссер: Сидни Хайерс, Орсон Уэллс
Сценарий: Дэвид Персэлл, Джек Седдон, Жюль Верн
Продюсер: Рожер Дюше, Нат Вахсбергер
Композитор: Жорж Гарваренц
Актеры: Джордж Сигал, Урсула Андресс, Орсон Уэллс, Иэн Хендри, Джонни Секка, Мишель Константен, Жорж Жере, Сильвен Левиньяк, Чарльз Ламб, Ги Делорм
Продолжительность: 01:46:04
Перевод: Многоголосый закадровый (5-й канал С-Петербург)
Субтитры: Отсутствуют

Дата мировой премьеры: 4 марта 1969
Видеокодек: MPEG-4 AVC/H.264
Битрейт видео: ~2100 Кбит/сек
Размер кадра: 720x304
Качество видео: DVDRip
Аудиокодек: AC3 2.0
Битрейт аудио: 192 kbps

MediaInfo:

General
Unique ID : 255201425383833907467098832706140771438 (0xBFFE01B7125D847398F2A79EEB02146E)
Complete name : H:\Downloads\Южная звезда.mkv
Format : Matroska
Format version : Version 4 / Version 2
File size : 1.70 GiB
Duration : 1h 46mn
Overall bit rate : 2 294 Kbps
Encoded date : UTC 2013-05-17 12:32:25
Writing application : mkvmerge v6.0.0 ('Coming Up For Air') built on Jan 20 2013 09:52:00
Writing library : libebml v1.3.0 + libmatroska v1.4.0
Video
ID : 1
Format : AVC
Format/Info : Advanced Video Codec
Format profile : [url=mailto:[email protected]][email protected][/url]
Format settings, CABAC : Yes
Format settings, ReFrames : 8 frames
Codec ID : V_MPEG4/ISO/AVC
Duration : 1h 46mn
Bit rate : 2 100 Kbps
Width : 720 pixels
Height : 304 pixels
Display aspect ratio : 2.35:1
Frame rate mode : Constant
Frame rate : 23.976 fps
Color space : YUV
Chroma subsampling : 4:2:0
Bit depth : 8 bits
Scan type : Progressive
Bits/(Pixel*Frame) : 0.400
Stream size : 1.52 GiB (90%)
Title : The Southern Star
Writing library : x264 core 125 r2208 d9d2288
Encoding settings : cabac=1 / ref=8 / deblock=1:-1:-1 / analyse=0x3:0x133 / me=umh / subme=9 / psy=1 / psy_rd=1.00:0.10 / mixed_ref=1 / me_range=32 / chroma_me=1 / trellis=2 / 8x8dct=1 / cqm=0 / deadzone=21,11 / fast_pskip=0 / chroma_qp_offset=-3 / threads=6 / lookahead_threads=1 / sliced_threads=0 / nr=0 / decimate=1 / interlaced=0 / bluray_compat=0 / constrained_intra=0 / bframes=3 / b_pyramid=2 / b_adapt=2 / b_bias=0 / direct=3 / weightb=1 / open_gop=0 / weightp=2 / keyint=250 / keyint_min=25 / scenecut=40 / intra_refresh=0 / rc_lookahead=60 / rc=2pass / mbtree=1 / bitrate=2100 / ratetol=1.0 / qcomp=0.60 / qpmin=10 / qpmax=51 / qpstep=4 / cplxblur=20.0 / qblur=0.5 / ip_ratio=1.40 / aq=1:1.00
Language : English
Default : Yes
Forced : No
Audio
ID : 2
Format : AC-3
Format/Info : Audio Coding 3
Mode extension : CM (complete main)
Format settings, Endianness : Big
Codec ID : A_AC3
Duration : 1h 46mn
Bit rate mode : Constant
Bit rate : 192 Kbps
Channel(s) : 2 channels
Channel positions : Front: L R
Sampling rate : 48.0 KHz
Bit depth : 16 bits
Compression mode : Lossy
Stream size : 146 MiB (8%)
Title : Многоголосый закадровый - 5-й канал СПб
Language : Russian
Default : Yes
Forced : No
Скриншоты:                    Время раздачи: с 13:00 до 01:00 по Москве (выходные круглосуточно), до 10 скачавших
Вне форума [Профиль] [ЛС]
Показать сообщения:    
Ответить на тему

Текущее время: Сегодня 10:59

Часовой пояс: GMT + 3



Вы не можете начинать темы
Вы не можете отвечать на сообщения
Вы не можете редактировать свои сообщения
Вы не можете удалять свои сообщения
Вы не можете голосовать в опросах
Вы не можете прикреплять файлы к сообщениям
Вы не можете скачивать файлы