Сегодня идет свободное скачивание без начисления Download

Марафонец / Marathon Man (1976) [1080p] BDRip

Ответить на тему
 
Автор
Сообщение

UndegraundMen ®

Стаж: 3 года 9 месяцев

Сообщений: 28329

Торрент-статистика

Пост 20-Май-2013 00:03

[Цитировать]

Марафонец / Marathon Man (1976) BDRip-«A thriller.»
Русское название: Марафонец
Оригинальное название: Marathon Man
Год выпуска: 1976
Жанр: Драма, Триллер
Описание фильма:
Главный герой Томас Леви студент-историк захвачен учебой, он любит бегать по утрам и скучает по своему старшему брату, который живет далеко и в совсем другом мире… Он еще не подозревает во что окажется втянут. Сможет ли он выдержать схватку с преследующим его опасным нацистским преступником?
Режиссер: Джон Шлезингер
Актеры: Дастин Хоффман, Лоуренс Оливье, Рой Шайдер, Уильям Дивэйн, Марта Келлер, Фриц Уивер, Ричард Брайт, Марк Лоуренс (I), Аллен Джозеф, Тито Гойя, Бен Дова, Лу Гилберт, Жак Марен, Джеймс Уинг Ву, Николь Делорьер, Лайонел Пина, Джейм Тирелли, Вильфредо Хернандез, Гарри Гоз, Майкл Вейл, Фред Статмен, Ли Стил, Уильям Мартел, Гленн Робардс, Рик Кэрротт, Альма Белтран, Дэниэл Нуньес, Тони Пена, Чуи Франко, Билли Кирнс, Сэлли Уилсон
Продолжительность: 02:05:24
Перевод: Многоголосый закадровый
Язык субтитров: Английские
Вид субтитров: Вшитые

Дата мировой премьеры: 6 октября 1976
Дата выхода DVD релиза: 30 марта 2010, «Юниверсал Пикчерс Рус»

Видеокодек: MPEG-4 AVC/H.264
Битрейт видео: ~10500 Кбит/с
Размер кадра: 1920х1080
Качество видео: BDRip
Аудио 1: AC3 Русский 6ch / 48 kHz / 448 kbps / 16-bit Многоголосый закадровый
Аудио 2: DTS Английский 6ch / 48 kHz /1509 kbps / 24-bit Оригинал
Сэмпл: Ссылка

MediaInfo

Общее
Уникальный идентификатор : 253028283532368457113129990536734482849 (0xBE5B798CB3A9B49A87BBEB41F4FCA1A1)
Полное имя : C:\Xvid4PSP\Marafonec.1976.x264.BDRip.1080p.mkv
Формат : Matroska
Версия формата : Version 4 / Version 2
Размер файла : 10,9 Гбайт
Продолжительность : 2 ч. 5 м.
Общий поток : 12,5 Мбит/сек
Название фильма : = MediaClub = rip by Painter
Дата кодирования : UTC 2013-05-19 18:54:31
Программа кодирования : mkvmerge v6.2.0 ('Promised Land') built on Apr 28 2013 12:22:01
Библиотека кодирования : libebml v1.3.0 + libmatroska v1.4.0
Видео
Идентификатор : 1
Формат : AVC
Формат/Информация : Advanced Video Codec
Профиль формата : [url=mailto:[email protected]][email protected][/url]
Параметр CABAC формата : Да
Параметр ReFrames формата : 4 кадра
Идентификатор кодека : V_MPEG4/ISO/AVC
Продолжительность : 2 ч. 5 м.
Битрейт : 10,5 Мбит/сек
Ширина : 1920 пикселей
Высота : 1080 пикселей
Соотношение сторон : 16:9
Режим частоты кадров : Постоянный
Частота кадров : 23,976 кадра/сек
Цветовое пространство : YUV
Субдискретизация насыщенности : 4:2:0
Битовая глубина : 8 бит
Тип развёртки : Прогрессивная
Бит/(Пиксели*Кадры) : 0.211
Размер потока : 8,99 Гбайт (82%)
Библиотека кодирования : x264 core 130 r2273 b3065e6
Настройки программы : cabac=1 / ref=4 / deblock=1:-3:-2 / analyse=0x3:0x133 / me=umh / subme=11 / psy=1 / psy_rd=1.00:0.20 / mixed_ref=1 / me_range=32 / chroma_me=1 / trellis=2 / 8x8dct=1 / cqm=0 / deadzone=21,11 / fast_pskip=0 / chroma_qp_offset=-3 / threads=6 / lookahead_threads=1 / sliced_threads=0 / nr=0 / decimate=0 / interlaced=0 / bluray_compat=0 / constrained_intra=0 / bframes=8 / b_pyramid=2 / b_adapt=2 / b_bias=0 / direct=3 / weightb=1 / open_gop=0 / weightp=2 / keyint=240 / keyint_min=23 / scenecut=40 / intra_refresh=0 / rc=2pass / mbtree=0 / bitrate=10500 / ratetol=1.0 / qcomp=0.60 / qpmin=0 / qpmax=69 / qpstep=4 / cplxblur=20.0 / qblur=0.5 / ip_ratio=1.40 / pb_ratio=1.30 / aq=1:1.00
Язык : English
Default : Да
Forced : Нет
Аудио #1
Идентификатор : 2
Формат : AC-3
Формат/Информация : Audio Coding 3
Расширение режима : CM (complete main)
Параметр Endianness формата : Big
Идентификатор кодека : A_AC3
Продолжительность : 2 ч. 5 м.
Вид битрейта : Постоянный
Битрейт : 448 Кбит/сек
Каналы : 6 каналов
Расположение каналов : Front: L C R, Side: L R, LFE
Частота : 48,0 КГц
Битовая глубина : 16 бит
Метод сжатия : С потерями
Размер потока : 402 Мбайт (4%)
Заголовок : Многоголосый
Язык : Russian
Default : Да
Forced : Нет
Аудио #2
Идентификатор : 3
Формат : DTS
Формат/Информация : Digital Theater Systems
Режим : 16
Параметр Endianness формата : Big
Идентификатор кодека : A_DTS
Продолжительность : 2 ч. 5 м.
Вид битрейта : Постоянный
Битрейт : 1509 Кбит/сек
Каналы : 6 каналов
Расположение каналов : Front: L C R, Side: L R, LFE
Частота : 48,0 КГц
Битовая глубина : 24 бит
Метод сжатия : С потерями
Размер потока : 1,32 Гбайт (12%)
Язык : English
Default : Нет
Forced : Нет
Текст
Идентификатор : 4
Формат : UTF-8
Идентификатор кодека : S_TEXT/UTF8
Идентификатор кодека/Информация : UTF-8 Plain Text
Язык : English
Default : Нет
Forced : Нет
Меню
00:00:00.000 : en:Long Distance Runner
00:01:12.823 : en:Key to the Box
00:03:24.955 : en:Traffic Snarl
00:06:26.428 : en:Incendiary Car Chase
00:08:38.810 : en:Race along the River
00:10:44.477 : en:Report of Klaus Szell's Death
00:12:10.188 : en:The Box inside the Box
00:14:27.867 : en:LeClerc's Shop
00:17:26.796 : en:Bomb in the Baby Carriage
00:18:23.561 : en:Bisenthal's Seminar
00:20:27.810 : en:Father's Footsteps
00:23:08.137 : en:Reassurance at the Cafe
00:24:39.353 : en:French Opera
00:26:30.380 : en:"LeClerc's Dead. It's not safe."
00:28:43.889 : en:The Wire Garrote
00:31:42.901 : en:The Clinic
00:33:24.044 : en:Library Meeting
00:35:09.107 : en:"You forgot Your Book."
00:37:36.129 : en:Somewhere in Uruguay
00:40:37.560 : en:Central Park
00:41:23.481 : en:Courting
00:42:52.987 : en:Mugged
00:44:01.180 : en:Letter to Doc
00:45:02.158 : en:The Land of Plenty
00:46:52.143 : en:Sons of the Father
00:52:27.936 : en:Truffles and Green-Eyed Chablis
00:55:53.100 : en:Scylla Stabbed
00:59:19.639 : en:Doc's Last Gasp
01:00:52.357 : en:Questioning Babe
01:01:48.914 : en:Janeway and the Division
01:07:05.271 : en:Haunted Memories
01:08:57.800 : en:Through the Bathroom Door
01:11:40.838 : en:Dentistry - "It's safe"
01:16:02.850 : en:Apparent Rescue
01:20:18.188 : en:The Drill
01:23:40.557 : en:Praise from Caesar
01:24:51.586 : en:Escape on Foot
01:29:33.326 : en:A Dime to make a Call
01:31:16.221 : en:Waking Melendez
01:33:53.795 : en:Rob my Apartment
01:34:57.066 : en:Safe House
01:39:06.315 : en:A Courier - Nothing More
01:42:43.157 : en:"Where is Szell?"
01:45:12.848 : en:The Price of a Diamond
01:48:30.462 : en:Der Weisse Engel
01:51:27.472 : en:Safe Deposit
01:53:30.303 : en:Hold-Up - "It isn't safe"
01:54:42.000 : en:The Ultimate Theft
01:56:37.532 : en:Essen
02:02:34.556 : en:End Credits
Скриншоты:
         
Время раздачи: 24/7
Вне форума [Профиль] [ЛС]
Показать сообщения:    
Ответить на тему

Текущее время: Сегодня 16:42

Часовой пояс: GMT + 3



Вы не можете начинать темы
Вы не можете отвечать на сообщения
Вы не можете редактировать свои сообщения
Вы не можете удалять свои сообщения
Вы не можете голосовать в опросах
Вы не можете прикреплять файлы к сообщениям
Вы не можете скачивать файлы