Today is a free download without charge Download

Плохой пёс / Bad Dog (серии 1-2 из 2) (2011) HDTV [H.264/1080i]

Reply to topic
 
Author
Message

UndegraundMen ®

Longevity: 6 years 8 months

Posts: 25145

Торрент-статистика

Post 21-May-2013 00:02

[Quote]

Плохой пёс / Bad Dog (2 серии из 2) (2011) HDTV [H.264/1080i]- Русское название: Плохой пёс
Оригинальное название: Bad Dog
Режиссер / Телекомпания: Discovery Communications, INC.
Год выпуска: 2011
Жанр: Документальный
Описание:
Мы ищем по всему миру самых озорных домашних питомцев — от воришки-лайки до попугая-матерщинника. И самый испорченный из них будет увенчан короной.
Продолжительность: 2 x ~ 00:44:06
Перевод: Одноголосый закадровый, профессиональный
Видеокодек: AVC
Битрейт видео: 7243 Кбит/сек (серия 1), 9730 Кбит/сек (серия 2)
Размер кадра: 1920 x 1080
Качество видео: HDTV [1080i]
Аудиокодек: AC3, 6ch
Битрейт аудио: 384 Кбит/сек

MI:

Общее
Идентификатор : 1 (0x1)
Полное имя : D:\upload\Bad Dog 1-2\1.Bad Dog.ts
Формат : MPEG-TS
Размер файла : 2,45 Гбайт
Продолжительность : 43 м.
Режим общего битрейта : Переменный
Общий поток : 8028 Кбит/сек
Видео
Идентификатор : 324 (0x144)
Идентификатор меню : 1 (0x1)
Формат : AVC
Формат/Информация : Advanced Video Codec
Профиль формата : [url=mailto:[email protected]][email protected][/url]
Параметр CABAC формата : Да
Параметр ReFrames формата : 3 кадра
Идентификатор кодека : 27
Продолжительность : 43 м.
Битрейт : 7243 Кбит/сек
Ширина : 1920 пикселей
Высота : 1080 пикселей
Соотношение сторон : 16:9
Частота кадров : 25,000 кадров/сек
Стандарт вещания : Component
Цветовое пространство : YUV
Субдискретизация насыщенности : 4:2:0
Битовая глубина : 8 бит
Тип развёртки : Чересстрочная
Порядок развёртки : Верхнее поле первое
Бит/(Пиксели*Кадры) : 0.140
Размер потока : 2,21 Гбайт (90%)
Основные цвета : BT.709
Характеристики трансфера : BT.709
Коэффициенты матрицы : BT.709
Аудио
Идентификатор : 404 (0x194)
Идентификатор меню : 1 (0x1)
Формат : AC-3
Формат/Информация : Audio Coding 3
Расширение режима : CM (complete main)
Параметр Endianness формата : Big
Идентификатор кодека : 6
Продолжительность : 43 м.
Вид битрейта : Постоянный
Битрейт : 384 Кбит/сек
Каналы : 6 каналов
Расположение каналов : Front: L C R, Side: L R, LFE
Частота : 48,0 КГц
Битовая глубина : 16 бит
Метод сжатия : С потерями
Размер потока : 120 Мбайт (5%)
Язык : Russian-Общее
Идентификатор : 1 (0x1)
Полное имя : D:\upload\Bad Dog 1-2\2.Bad Dog.ts
Формат : MPEG-TS
Размер файла : 3,28 Гбайт
Продолжительность : 44 м.
Режим общего битрейта : Переменный
Общий поток : 10,6 Мбит/сек
Видео
Идентификатор : 324 (0x144)
Идентификатор меню : 1 (0x1)
Формат : AVC
Формат/Информация : Advanced Video Codec
Профиль формата : [url=mailto:[email protected]][email protected][/url]
Параметр CABAC формата : Да
Параметр ReFrames формата : 3 кадра
Идентификатор кодека : 27
Продолжительность : 44 м.
Битрейт : 9730 Кбит/сек
Ширина : 1920 пикселей
Высота : 1080 пикселей
Соотношение сторон : 16:9
Частота кадров : 25,000 кадров/сек
Стандарт вещания : Component
Цветовое пространство : YUV
Субдискретизация насыщенности : 4:2:0
Битовая глубина : 8 бит
Тип развёртки : Чересстрочная
Порядок развёртки : Верхнее поле первое
Бит/(Пиксели*Кадры) : 0.188
Размер потока : 3,00 Гбайт (91%)
Основные цвета : BT.709
Характеристики трансфера : BT.709
Коэффициенты матрицы : BT.709
Аудио
Идентификатор : 404 (0x194)
Идентификатор меню : 1 (0x1)
Формат : AC-3
Формат/Информация : Audio Coding 3
Расширение режима : CM (complete main)
Параметр Endianness формата : Big
Идентификатор кодека : 6
Продолжительность : 44 м.
Вид битрейта : Постоянный
Битрейт : 384 Кбит/сек
Каналы : 6 каналов
Расположение каналов : Front: L C R, Side: L R, LFE
Частота : 48,0 КГц
Битовая глубина : 16 бит
Метод сжатия : С потерями
Размер потока : 121 Мбайт (4%)
Язык : Russian
Скриншоты:
         
Время раздачи: 02.00х18.00 мск.
Other forum [Profile] [PM]
Display posts from previous:    
Reply to topic

The time now is: Today 06:57

All times are GMT + 3 Hours



You cannot post new topics in this forum
You cannot reply to topics in this forum
You cannot edit your posts in this forum
You cannot delete your posts in this forum
You cannot vote in polls in this forum
You cannot attach files in this forum
You cannot download files in this forum