Сегодня идет свободное скачивание без начисления Download

Парижское казино / Casino de Paris (Андре Юнебель / André Hunebelle)[1957,Комедия, Мьюзикл ] DVDRip

Ответить на тему
 
Автор
Сообщение

sashau ®

Пол:

Стаж: 4 года 11 месяцев

Сообщений: 3785

Торрент-статистика

Пост 22-Май-2013 16:37

[Цитировать]

Парижское казино / Casino de Paris - Русское название: Парижское казино
Оригинальное название: Casino de Paris
Производство: Франция, Германия (ФРГ), Италия, Bavaria Film, Bavaria-Filmkunst GmbH, Critérion Film, Pathé Consortium Cinéma, Rizzoli Film S.p.a.
Год выпуска: 1957
Жанр: Комедия, Мьюзикл
Описание фильма:
Известный писатель Александр Гарди, увидев в "Casino de Paris" выступление Катарины Миллер, решает, что лучшей актрисы для его новой пьесы не найти. Призвав на помощь все свое красноречие и расписав в самых радужных тонах девушке ее будущее, ему удается уговорить ее переехать на его роскошную виллу в Каннах для ... репетиций. Но возникают непредвиденные осложнения: Катарина приезжает не одна, а в сопровождении отца, матери, братьев, двух собак и попугая. Шумное семейство тут же осваивается на новом месте, как у себя дома. Помощник Гарди очень недоволен его выбором. Вдобавок ко всему из Парижа приезжает директор казино, желающий во что бы то ни стало вернуть Катарину обратно.
Режиссер: Андре Юнебель / André Hunebelle
Актеры: Жильбер Беко, Катерина Валенте, Витторио Де Сика, Грета Вайзер, Грегуар Аслан, Рудольф Фогель, Фриц Лафонтен, Роланд Кайзер, Вера Вальмонт, Ричард Аллан
Продолжительность: 01:34:39
Перевод: Одноголосый закадровый

Дата мировой премьеры: 26.09.1957
Качество видео: DVDRip
Видео: 704x416 (1.69:1), 25 fps, XviD build 50 ~1806 kbps avg, 0.25 bit/pixel
Аудио 1: 48 kHz, AC3 Dolby Digital, 2/0 (L,R) ch, ~192 kbps - русский
Аудио 2: 48 kHz, AC3 Dolby Digital, 2/0 (L,R) ch, ~192 kbps - немецкий

MediaInfo

General
Complete name : D:\Public\Casino.de.Paris.1957.DVDRip.XviD.avi
Format : AVI
Format/Info : Audio Video Interleave
File size : 1.46 GiB
Duration : 1h 34mn
Overall bit rate : 2 206 Kbps
Writing application : VirtualDubMod 1.5.10.2 (build 2542/release)
Writing library : VirtualDubMod build 2542/release
Video
ID : 0
Format : MPEG-4 Visual
Format profile : Advanced [email protected]
Format settings, BVOP : 1
Format settings, QPel : No
Format settings, GMC : No warppoints
Format settings, Matrix : Default (MPEG)
Codec ID : XVID
Codec ID/Hint : XviD
Duration : 1h 34mn
Bit rate : 1 808 Kbps
Width : 704 pixels
Height : 416 pixels
Display aspect ratio : 1.692
Frame rate : 25.000 fps
Color space : YUV
Chroma subsampling : 4:2:0
Bit depth : 8 bits
Scan type : Progressive
Compression mode : Lossy
Bits/(Pixel*Frame) : 0.247
Stream size : 1.20 GiB (82%)
Writing library : XviD 1.2.1 (UTC 2008-12-04)
Audio #1
ID : 1
Format : AC-3
Format/Info : Audio Coding 3
Mode extension : CM (complete main)
Codec ID : 2000
Duration : 1h 34mn
Bit rate mode : Constant
Bit rate : 192 Kbps
Channel(s) : 2 channels
Channel positions : Front: L R
Sampling rate : 48.0 KHz
Bit depth : 16 bits
Compression mode : Lossy
Stream size : 130 MiB (9%)
Alignment : Split accross interleaves
Interleave, duration : 40 ms (1.00 video frame)
Interleave, preload duration : 500 ms
Audio #2
ID : 2
Format : AC-3
Format/Info : Audio Coding 3
Mode extension : CM (complete main)
Codec ID : 2000
Duration : 1h 34mn
Bit rate mode : Constant
Bit rate : 192 Kbps
Channel(s) : 2 channels
Channel positions : Front: L R
Sampling rate : 48.0 KHz
Bit depth : 16 bits
Compression mode : Lossy
Stream size : 130 MiB (9%)
Alignment : Split accross interleaves
Interleave, duration : 40 ms (1.00 video frame)
Interleave, preload duration : 500 ms
Скриншоты:          
Вне форума [Профиль] [ЛС]
Похожие темы
Форум Тема Автор Торрент Отв. Посл. сообщение
./templates/default/images/folder_dl.gif T Фильмы 2001-2010 Париж: Город мёртвых / As Above, So Below (Джон Эрик Даудл / John Erick Dowdle) [2014 г., ужасы, триллер, BDRip-AVC] Dub (Лицензия) + VO (Д.Есарев) + Original (Eng) + Sub (Rus, Eng) Clavik
1 | 0

0 | 623

26

2014-12-14 21:08
Clavik Последнее
Показать сообщения:    
Ответить на тему

Текущее время: Сегодня 17:22

Часовой пояс: GMT + 3



Вы не можете начинать темы
Вы не можете отвечать на сообщения
Вы не можете редактировать свои сообщения
Вы не можете удалять свои сообщения
Вы не можете голосовать в опросах
Вы не можете прикреплять файлы к сообщениям
Вы не можете скачивать файлы