Сегодня идет свободное скачивание без начисления Download

Ниночка / Ninotchka [Эрнст Любич] (1939, мелодрама, комедия) WEB-DLRip

Ответить на тему
 
Автор
Сообщение

UndegraundMen ®

Стаж: 3 года 9 месяцев

Сообщений: 28329

Торрент-статистика

Пост 25-Май-2013 00:03

[Цитировать]

Ниночка / Ninotchka (1939) WEB-DLRip-- Русское название: Ниночка
Оригинальное название: Ninotchka
Год выпуска: 1939
Страна: США | Metro-Goldwyn-Mayer (MGM), Loew's Inc.
Жанр: мелодрама, комедия-Описание фильма:
В Париж прибывают посланцы Страны Советов, чтобы выгодно продать национализированные драгоценности, и на вырученные деньги купить оружие и продукты. Неожиданно выясняется, что часть бриллиантов принадлежала до революции великой княгине Сване, которая посылает своего юриста и любовника Леона уладить дела с «красными».
Вкусившие сладкую парижскую жизнь, они заранее готовы на все, лишь бы подольше пробыть здесь. Но поскольку от посланцев ни слуху, ни духу, в Париж с чрезвычайной миссией выезжает несгибаемая революционерка Ниночка… Узнав об этом, Леон решает соблазнить «комиссаршу»…-Режиссер: Эрнст Любич
Актеры: Грета Гарбо, Мелвин Дуглас, Ина Клер, Бела Лугоши, Сиг Руман, Феликс Брессарт, Александр Гранах, Грегори Гайе, Рольф Седан, Эдвин Максвелл ...
Продолжительность: 01:50:30
Перевод: Многоголосый закадровый
Язык субтитров: русские (Film Prestige, Яна Кигара), английские
Вид субтитров: отдельным файлом
 
Дата мировой премьеры: 6 октября 1939
Видеокодек: Xvid
Битрейт видео: ~1119 Kbps
Размер кадра: 704*512
Качество видео: WEB-DLRip
Аудио #1: AC3 2.0, 192 Kbps, русский (Film Prestige)
Аудио #2: AC3 2.0, 192 Kbps, русский (Домашний)
Аудио #3: AC3 1.0, 192 Kbps, английский

MediaInfo:

Код:
General
Complete name                            : :\Ninotchka\Ninochka (1939).Web-DLRip.avi
Format                                   : AVI
Format/Info                              : Audio Video Interleave
File size                                : 1.32 GiB
Duration                                 : 1h 50mn
Overall bit rate                         : 1 714 Kbps
Writing application                      : VirtualDubMod 1.5.10.2 (build 2540/release)
Writing library                          : VirtualDubMod build 2540/release
Video
ID                                       : 0
Format                                   : MPEG-4 Visual
Format profile                           : Advanced [email protected]
Format settings, BVOP                    : 2
Format settings, QPel                    : No
Format settings, GMC                     : No warppoints
Format settings, Matrix                  : Default (H.263)
Muxing mode                              : Packed bitstream
Codec ID                                 : XVID
Codec ID/Hint                            : XviD
Duration                                 : 1h 50mn
Bit rate                                 : 1 119 Kbps
Width                                    : 704 pixels
Height                                   : 512 pixels
Display aspect ratio                     : 1.375
Frame rate                               : 23.976 fps
Color space                              : YUV
Chroma subsampling                       : 4:2:0
Bit depth                                : 8 bits
Scan type                                : Progressive
Compression mode                         : Lossy
Bits/(Pixel*Frame)                       : 0.129
Stream size                              : 884 MiB (65%)
Writing library                          : XviD 57
Audio #1
ID                                       : 1
Format                                   : AC-3
Format/Info                              : Audio Coding 3
Mode extension                           : CM (complete main)
Format settings, Endianness              : Big
Codec ID                                 : 2000
Duration                                 : 1h 50mn
Bit rate mode                            : Constant
Bit rate                                 : 192 Kbps
Channel(s)                               : 2 channels
Channel positions                        : Front: L R
Sampling rate                            : 48.0 KHz
Bit depth                                : 16 bits
Compression mode                         : Lossy
Stream size                              : 152 MiB (11%)
Alignment                                : Split accross interleaves
Interleave, duration                     : 42 ms (1.00 video frame)
Interleave, preload duration             : 500 ms
Audio #2
ID                                       : 2
Format                                   : AC-3
Format/Info                              : Audio Coding 3
Mode extension                           : CM (complete main)
Format settings, Endianness              : Big
Codec ID                                 : 2000
Duration                                 : 1h 50mn
Bit rate mode                            : Constant
Bit rate                                 : 192 Kbps
Channel(s)                               : 2 channels
Channel positions                        : Front: L R
Sampling rate                            : 48.0 KHz
Bit depth                                : 16 bits
Compression mode                         : Lossy
Stream size                              : 152 MiB (11%)
Alignment                                : Split accross interleaves
Interleave, duration                     : 42 ms (1.00 video frame)
Interleave, preload duration             : 500 ms
Audio #3
ID                                       : 3
Format                                   : AC-3
Format/Info                              : Audio Coding 3
Mode extension                           : CM (complete main)
Format settings, Endianness              : Big
Codec ID                                 : 2000
Duration                                 : 1h 50mn
Bit rate mode                            : Constant
Bit rate                                 : 192 Kbps
Channel(s)                               : 1 channel
Channel positions                        : Front: C
Sampling rate                            : 48.0 KHz
Bit depth                                : 16 bits
Compression mode                         : Lossy
Stream size                              : 152 MiB (11%)
Alignment                                : Split accross interleaves
Interleave, duration                     : 42 ms (1.00 video frame)
Interleave, preload duration             : 500 ms

Рецензия:

KanuTaH
«Гарбо смеется!»
Фильм, вышедшей в далекий 1939 год, в тот год, когда весь мир плакал над «Унесенными ветром». Именно из-за конкуренции с таким маститым соперником фильму «Ниночка» никаких оскаров и не досталось, в актив можно занести разве, что 4 номинации. Это черно-белый фильм, пропитанный духом легкого авантюризма и серьезной любви двух людей с несовместимым образом жизни, который к концу стал вполне совместим. Этих двух людей, да еще и некоторых других личностей, удостоенных меньшим вниманием, свело вместе дело о драгоценностях княгине Сваны. Стоит ли говорить, что они оказались по разные стороны баррикад?
Фильм просто изобилует смешными моментами, романтикой и другими приятными мелочами. Просмотр фильма завораживает, так же как и игра великолепной Греты Гарбо, хотя и выглядящей местами нелепо, особенно для русского зрителя, ибо русские в голивудских фильмах даже сейчас выглядят не очень правдоподобно, а что уж говорить про те далекие предвоенные годы. Фильм вышел в прокат со слоганом «Гарбо смеётся!». И действительно… смеётся. Очень уж непривычно выглядит Грета Гарбо в своей полностью комедийной роли, но в тоже время при ней осталось её изящество и шарм.
Не отстал от своей партнерши и Мелвин Дуглас, сыгравший роль Леона, притягивающий нас своей элегантностью и прекрасным чувством юмора. Фильм больше не о войне идеологий советско-пролетарской против западно-буржуазной, а о схожести и порою даже одинаковых потребностях людей, живущих в этих вроде бы разных по своей сущности странах, если не сказать мирах. В фильме не обошлось и без разоблачения графа Леона, и без осознания того, что судебный процесс, из-за которого встретились и влюбились в друг друга Ниночка и Леон, по сути то никому из них не нужен. Пусть не очень оригинально, но зато просто ювелирно поставлено. Очень светлый, добрый и веселый фильм. Все хорошо, да только правды ноль.
9 из 10
Скриншоты:        Время раздачи: 24/7 до 3-х скачавших
Вне форума [Профиль] [ЛС]
Показать сообщения:    
Ответить на тему

Текущее время: Сегодня 20:58

Часовой пояс: GMT + 3



Вы не можете начинать темы
Вы не можете отвечать на сообщения
Вы не можете редактировать свои сообщения
Вы не можете удалять свои сообщения
Вы не можете голосовать в опросах
Вы не можете прикреплять файлы к сообщениям
Вы не можете скачивать файлы