Сегодня идет свободное скачивание без начисления Download

Полицейский из Беверли-Хиллз / Beverly Hills Cop (1984) BDRip [720p] ATV

Ответить на тему
 
Автор
Сообщение

UndegraundMen ®

Стаж: 3 года 9 месяцев

Сообщений: 28329

Торрент-статистика

Пост 25-Май-2013 00:03

[Цитировать]

Полицейский из Беверли-Хиллз / Beverly Hills Cop (1984) BDRip [720p] ATV
«In Detroit a cop learns to take the heat. In L.A. he learns to keep his cool.»
- Русское название: Полицейский из Беверли-Хиллз
Оригинальное название: Beverly Hills Cop
Год: 1984
Страна/Студия: США / © Paramount Pictures, Eddie Murphy Productions
Жанр: боевик, триллер, драма, комедия, криминал
Продолжительность: 01:45:04
Перевод: Русский многоголосый закадровый (Киномания), многоголосый закадровый (CTC), одноголосый закадровый (Goblin), одноголосый закадровый (Володарский), одноголосый закадровый (Горчаков), многоголосый закадровый (R5), многоголосый закадровый
Субтитры / Язык субтитров: Английский, Русский
Навигация: по главам (с изображениями)
Рейтинг MPAA -R-Режиссёр: Мартин Брест
В ролях: Эдди Мёрфи, Джадж Райнхолд, Джон Эштон, Лиза Айлбакер, Ронни Кокс, Стивен Беркофф, Джеймс Руссо, Джонатан Бэнкс, Стивен Эллиот, Гилберт Р. Хилла
Описание: Чернокожий детройтский полицейский встречается со школьным другом, которого долго не видел, и вдруг того убивают. В поисках убийц полицейский едет в Лос-Анджелес.
Здесь он натыкается на глухое и упорное неприятие залетного выскочки местными полицейскими, но с помощью своего удивительного дара находить выход из любого положения, Фоули заручается симпатией и, соответственно, реальной поддержкой двух из них. Множество драк, перестрелок, погонь, хорошей музыки и отменного юмора.- -Видео: H.264, 23.976 fps, ~ 8700 кбит/сек, 1280x720 (16:9)
Аудио:
* ААС 2.0 180 kbps - Русский многоголосый закадровый (Киномания)
* АС3 5.1 640 kbps - Русский многоголосый закадровый (Киномания)
* ААС 2.0 192 kbps - Русский многоголосый закадровый (CTC)
* АС3 2.0 192 kbps - Русский многоголосый закадровый (CTC)
* ААС 2.0 180 kbps - Русский одноголосый закадровый (Goblin)
* АС3 5.1 640 kbps - Русский одноголосый закадровый (Goblin)
* ААС 2.0 180 kbps - Русский многоголосый закадровый (Володарский)
* АС3 5.1 640 kbps - Русский многоголосый закадровый (Володарский)
* ААС 2.0 180 kbps - Русский многоголосый закадровый (Горчаков)
* АС3 2.0 192 kbps - Русский многоголосый закадровый (Горчаков)
* ААС 2.0 180 kbps - Английский
* АС3 5.1 640 kbps - Английский
Субтитры:
* 3GPP Text - Английский
* 3GPP Text - Русский

Media Info

Код:
Общее
Полное имя : /Users/gekkas/Movies/Beverly Hill/ Beverly Hills Cop.1984 (HD).m4v
Формат : MPEG-4
Идентификатор кодека : M4V
Размер файла : 10,3 Гбайт
Продолжительность : 1 ч. 45 м.
Режим общего битрейта : Переменный
Общий поток : 14,0 Мбит/сек
Название фильма : Полицейский из Беверли-Хиллз
Исполнитель : Martin Brest
Жанр : Comedy
Дата записи : UTC 1984-12-05 08:00:00
Дата кодирования : UTC 2013-05-15 21:17:12
Дата пометки : UTC 2013-05-23 07:02:34
Правообладатель : © Paramount Pictures, Eddie Murphy Productions
Обложка : Yes
Примечание : «In Detroit a cop learns to take the heat. In L.A. he learns to keep his cool.»
sonm : Beverly Hills Cop
desc : Чернокожий детройтский полицейский встречается со школьным другом, которого долго не видел, и вдруг того убивают. В поисках убийц полицейский едет в Лос-Анджелес.
ldes : Чернокожий детройтский полицейский встречается со школьным другом, которого долго не видел, и вдруг того убивают. В поисках убийц полицейский едет в Лос-Анджелес. Здесь он натыкается на глухое и упорное неприятие залетного выскочки местными полицейскими, но с помощью своего удивительного дара находить выход из любого положения, Фоули заручается симпатией и, соответственно, реальной поддержкой двух из них. Множество драк, перестрелок, погонь, хорошей музыки и отменного юмора /  / The heat is on in this fast paced action-comedy starring Eddie Murphy as Axel Foley, a street smart Detroit cop tracking down his best friend's killer in Beverly Hills. Axel quickly learns that his wild style doesn't fit in with the Beverly Hills Police Department, which assigns two officers (Judge Reinhold and John Ashton) to make sure things don't get out of hand. Dragging the stuffy detectives along for the ride, Axel smashes through a huge culture clash in his hilarious, high-speed pursuit of justice. Featuring cameos by Paul Reiser, Bronson Pinchot and Damon Wayans, Beverly Hills Cop is an exhilarating sidesplitting adventure!
hdvd : 1
stik : 9
rtng : 0
cnID : 292813166
xid : Apple:vendor_id:1984-2318
iTunEXTC : mpaa|R|400|
iTunMOVI :  /  /  /  /   cast /    /      /       name /       Эдди Мёрфи /      /      /       name /       Джадж Райнхолд /      /      /       name /       Джон Эштон /      /      /       name /       Лиза Айлбакер /      /      /       name /       Ронни Кокс /      /      /       name /       Стивен Беркофф /      /      /       name /       Джеймс Руссо /      /      /       name /       Джонатан Бэнкс /      /      /       name /       Стивен Эллиот /      /      /       name /       Гилберт Р. Хилл /      /    /   directors /    /      /       name /       Мартин Брест /      /    /   producers /    /      /       name /       Джерри Брукхаймер /      /      /       name /       Линда Хорнер /      /      /       name /       Майк Модер /      /    /   screenwriters /    /      /       name /       Дэниел Питри мл. /      /      /       name /       Данило Бах /      /    /   studio /   © Paramount Pictures, Eddie Murphy Productions /  /
Видео #1
Идентификатор : 1
Формат : AVC
Формат/Информация : Advanced Video Codec
Профиль формата : [url=mailto:[email protected]][email protected][/url]
Параметр CABAC формата : Да
Параметр ReFrames формата : 9 кадров
Идентификатор кодека : avc1
Идентификатор кодека/Информация : Advanced Video Coding
Продолжительность : 1 ч. 45 м.
Битрейт : 8700 Кбит/сек
Максимальный битрейт : 17,1 Мбит/сек
Ширина : 1280 пикселей
Высота : 720 пикселей
Соотношение сторон : 16:9
Режим частоты кадров : Постоянный
Частота кадров : 23,976 кадра/сек
Цветовое пространство : YUV
Субдискретизация насыщенности : 4:2:0
Битовая глубина : 8 бит
Тип развёртки : Прогрессивная
Бит/(Пиксели*Кадры) : 0.394
Размер потока : 6,38 Гбайт (62%)
Библиотека кодирования : x264 core 129 r2245+704+36 8e61944 tMod+MixAQ [[email protected] X86_64]
Настройки программы : cabac=1 / ref=9 / deblock=1:-3:-3 / analyse=0x3:0x113 / me=umh / subme=11 / psy=1 / fade_compensate=0.00 / psy_rd=1.00:0.10 / mixed_ref=1 / me_range=48 / chroma_me=1 / trellis=2 / 8x8dct=1 / cqm=0 / deadzone=21,11 / fast_pskip=0 / chroma_qp_offset=-3 / threads=18 / lookahead_threads=3 / sliced_threads=0 / nr=0 / decimate=0 / interlaced=0 / bluray_compat=0 / constrained_intra=0 / fgo=0 / bframes=12 / b_pyramid=2 / b_adapt=2 / b_bias=0 / direct=3 / weightb=1 / open_gop=0 / weightp=2 / keyint=250 / keyint_min=23 / scenecut=40 / intra_refresh=0 / rc_lookahead=180 / rc=2pass / mbtree=0 / bitrate=8700 / ratetol=1.0 / qcomp=0.70 / qpmin=0 / qpmax=69 / qpstep=4 / cplxblur=20.0 / qblur=0.5 / vbv_maxrate=62500 / vbv_bufsize=50000 / nal_hrd=none / ip_ratio=1.25 / pb_ratio=1.15 / aq=4 / aq-strength=0.80 / aq-sensitivity=10.00 / aq-ifactor=1.00 / aq-pfactor=1.00 / aq-bfactor=1.00 / aq2=0
Язык : English
Дата кодирования : UTC 2013-05-15 21:17:12
Дата пометки : UTC 2013-05-15 21:19:49
Коэффициенты матрицы : BT.709
Видео #2
Идентификатор : 24
Формат : JPEG
Идентификатор кодека : jpeg
Продолжительность : 1 ч. 45 м.
Вид битрейта : Переменный
Битрейт : 866 бит/сек
Ширина : 640 пикселей
Высота : 360 пикселей
Соотношение сторон : 16:9
Режим частоты кадров : Переменный
Частота кадров : 0,002 кадр/сек
Минимальная частота кадров : 0,001 кадр/сек
Максимальная частота кадров : 0,006 кадр/сек
Цветовое пространство : YUV
Субдискретизация насыщенности : 4:2:0
Битовая глубина : 8 бит
Метод сжатия : С потерями
Бит/(Пиксели*Кадры) : 1.879
Размер потока : 582 Кбайт (0%)
Язык : English
Дата кодирования : UTC 2013-05-23 06:43:54
Дата пометки : UTC 2013-05-23 06:43:54
Аудио #1
Идентификатор : 2
Формат : AAC
Формат/Информация : Advanced Audio Codec
Профиль формата : LC
Идентификатор кодека : 40
Продолжительность : 1 ч. 45 м.
Вид битрейта : Переменный
Битрейт : 180 Кбит/сек
Максимальный битрейт : 232 Кбит/сек
Каналы : 2 канала
Расположение каналов : Front: L R
Частота : 48,0 КГц
Метод сжатия : С потерями
Размер потока : 135 Мбайт (1%)
Заголовок : AAC Russian MVO (Kinomania)
Язык : Russian
Дата кодирования : UTC 2013-05-15 21:18:04
Дата пометки : UTC 2013-05-15 21:19:49
Аудио #2
Идентификатор : 3
Формат : AC-3
Формат/Информация : Audio Coding 3
Расширение режима : CM (complete main)
Параметр Endianness формата : Big
Идентификатор кодека : ac-3
Продолжительность : 1 ч. 45 м.
Вид битрейта : Постоянный
Битрейт : 640 Кбит/сек
Каналы : 6 каналов
Расположение каналов : Front: L C R, Side: L R, LFE
Частота : 48,0 КГц
Битовая глубина : 16 бит
Метод сжатия : С потерями
Размер потока : 481 Мбайт (5%)
Заголовок : AC3 Russian MVO (Kinomania)
Язык : Russian
Дата кодирования : UTC 2013-05-15 21:18:05
Дата пометки : UTC 2013-05-15 21:19:49
Аудио #3
Идентификатор : 4
Формат : AAC
Формат/Информация : Advanced Audio Codec
Профиль формата : LC
Идентификатор кодека : 40
Продолжительность : 1 ч. 45 м.
Вид битрейта : Переменный
Битрейт : 192 Кбит/сек
Максимальный битрейт : 216 Кбит/сек
Каналы : 2 канала
Расположение каналов : Front: L R
Частота : 48,0 КГц
Метод сжатия : С потерями
Размер потока : 146 Мбайт (1%)
Заголовок : AAC Russian MVO (CTC)
Язык : Russian
Дата кодирования : UTC 2013-05-15 21:18:22
Дата пометки : UTC 2013-05-15 21:19:49
Аудио #4
Идентификатор : 5
Формат : AC-3
Формат/Информация : Audio Coding 3
Расширение режима : CM (complete main)
Параметр Endianness формата : Big
Идентификатор кодека : ac-3
Продолжительность : 1 ч. 45 м.
Вид битрейта : Постоянный
Битрейт : 192 Кбит/сек
Каналы : 2 канала
Расположение каналов : Front: L R
Частота : 48,0 КГц
Битовая глубина : 16 бит
Метод сжатия : С потерями
Размер потока : 144 Мбайт (1%)
Заголовок : AC3 Russian MVO (CTC)
Язык : Russian
Дата кодирования : UTC 2013-05-15 21:18:23
Дата пометки : UTC 2013-05-15 21:19:49
Аудио #5
Идентификатор : 10
Формат : AAC
Формат/Информация : Advanced Audio Codec
Профиль формата : LC
Идентификатор кодека : 40
Продолжительность : 1 ч. 45 м.
Вид битрейта : Переменный
Битрейт : 178 Кбит/сек
Максимальный битрейт : 232 Кбит/сек
Каналы : 2 канала
Расположение каналов : Front: L R
Частота : 48,0 КГц
Метод сжатия : С потерями
Размер потока : 134 Мбайт (1%)
Заголовок : AAC Russian VO (Goblin)
Язык : Russian
Дата кодирования : UTC 2013-05-15 21:18:46
Дата пометки : UTC 2013-05-15 21:19:49
Аудио #6
Идентификатор : 11
Формат : AC-3
Формат/Информация : Audio Coding 3
Расширение режима : CM (complete main)
Параметр Endianness формата : Big
Идентификатор кодека : ac-3
Продолжительность : 1 ч. 45 м.
Вид битрейта : Постоянный
Битрейт : 640 Кбит/сек
Каналы : 6 каналов
Расположение каналов : Front: L C R, Side: L R, LFE
Частота : 48,0 КГц
Битовая глубина : 16 бит
Метод сжатия : С потерями
Размер потока : 481 Мбайт (5%)
Заголовок : AC3 Russian VO (Goblin)
Язык : Russian
Дата кодирования : UTC 2013-05-15 21:18:47
Дата пометки : UTC 2013-05-15 21:19:49
Аудио #7
Идентификатор : 12
Формат : AAC
Формат/Информация : Advanced Audio Codec
Профиль формата : LC
Идентификатор кодека : 40
Продолжительность : 1 ч. 45 м.
Вид битрейта : Переменный
Битрейт : 180 Кбит/сек
Максимальный битрейт : 232 Кбит/сек
Каналы : 2 канала
Расположение каналов : Front: L R
Частота : 48,0 КГц
Метод сжатия : С потерями
Размер потока : 136 Мбайт (1%)
Заголовок : AAC Russian VO (Volodarsky)
Язык : Russian
Дата кодирования : UTC 2013-05-15 21:19:04
Дата пометки : UTC 2013-05-15 21:19:49
Аудио #8
Идентификатор : 13
Формат : AC-3
Формат/Информация : Audio Coding 3
Расширение режима : CM (complete main)
Параметр Endianness формата : Big
Идентификатор кодека : ac-3
Продолжительность : 1 ч. 45 м.
Вид битрейта : Постоянный
Битрейт : 640 Кбит/сек
Каналы : 6 каналов
Расположение каналов : Front: L C R, Side: L R, LFE
Частота : 48,0 КГц
Битовая глубина : 16 бит
Метод сжатия : С потерями
Размер потока : 481 Мбайт (5%)
Заголовок : AC3 Russian VO (Volodarsky)
Язык : Russian
Дата кодирования : UTC 2013-05-15 21:19:05
Дата пометки : UTC 2013-05-15 21:19:49
Аудио #9
Идентификатор : 14
Формат : AAC
Формат/Информация : Advanced Audio Codec
Профиль формата : LC
Идентификатор кодека : 40
Продолжительность : 1 ч. 45 м.
Вид битрейта : Переменный
Битрейт : 174 Кбит/сек
Максимальный битрейт : 206 Кбит/сек
Каналы : 2 канала
Расположение каналов : Front: L R
Частота : 48,0 КГц
Метод сжатия : С потерями
Размер потока : 131 Мбайт (1%)
Заголовок : AAC Russian VO (Gorchakov)
Язык : Russian
Дата кодирования : UTC 2013-05-15 21:19:23
Дата пометки : UTC 2013-05-15 21:19:49
Аудио #10
Идентификатор : 15
Формат : AC-3
Формат/Информация : Audio Coding 3
Расширение режима : CM (complete main)
Параметр Endianness формата : Big
Идентификатор кодека : ac-3
Продолжительность : 1 ч. 45 м.
Вид битрейта : Постоянный
Битрейт : 192 Кбит/сек
Каналы : 2 канала
Расположение каналов : Front: L R
Частота : 48,0 КГц
Битовая глубина : 16 бит
Метод сжатия : С потерями
Размер потока : 144 Мбайт (1%)
Заголовок : AC3 Russian VO (Gorchakov)
Язык : Russian
Дата кодирования : UTC 2013-05-15 21:19:24
Дата пометки : UTC 2013-05-15 21:19:49
Аудио #11
Идентификатор : 16
Формат : AAC
Формат/Информация : Advanced Audio Codec
Профиль формата : LC
Идентификатор кодека : 40
Продолжительность : 1 ч. 45 м.
Вид битрейта : Переменный
Битрейт : 187 Кбит/сек
Максимальный битрейт : 232 Кбит/сек
Каналы : 2 канала
Расположение каналов : Front: L R
Частота : 48,0 КГц
Метод сжатия : С потерями
Размер потока : 141 Мбайт (1%)
Заголовок : AAC English
Язык : English
Дата кодирования : UTC 2013-05-15 21:19:30
Дата пометки : UTC 2013-05-15 21:19:49
Аудио #12
Идентификатор : 17
Формат : AC-3
Формат/Информация : Audio Coding 3
Расширение режима : CM (complete main)
Параметр Endianness формата : Big
Идентификатор кодека : ac-3
Продолжительность : 1 ч. 45 м.
Вид битрейта : Постоянный
Битрейт : 640 Кбит/сек
Каналы : 6 каналов
Расположение каналов : Front: L C R, Side: L R, LFE
Частота : 48,0 КГц
Битовая глубина : 16 бит
Метод сжатия : С потерями
Размер потока : 481 Мбайт (5%)
Заголовок : AC3 English
Язык : English
Дата кодирования : UTC 2013-05-15 21:19:31
Дата пометки : UTC 2013-05-15 21:19:49
Аудио #13
Идентификатор : 19
Формат : AC-3
Формат/Информация : Audio Coding 3
Расширение режима : CM (complete main)
Параметр Endianness формата : Big
Идентификатор кодека : ac-3
Продолжительность : 1 ч. 45 м.
Вид битрейта : Постоянный
Битрейт : 640 Кбит/сек
Каналы : 6 каналов
Расположение каналов : Front: L C R, Side: L R, LFE
Частота : 48,0 КГц
Битовая глубина : 16 бит
Метод сжатия : С потерями
Размер потока : 481 Мбайт (5%)
Язык : Russian
Дата кодирования : UTC 2013-05-23 06:43:24
Дата пометки : UTC 2013-05-23 06:43:32
Аудио #14
Идентификатор : 20
Формат : AC-3
Формат/Информация : Audio Coding 3
Расширение режима : CM (complete main)
Параметр Endianness формата : Big
Идентификатор кодека : ac-3
Продолжительность : 1 ч. 45 м.
Вид битрейта : Постоянный
Битрейт : 640 Кбит/сек
Каналы : 6 каналов
Расположение каналов : Front: L C R, Side: L R, LFE
Частота : 48,0 КГц
Битовая глубина : 16 бит
Метод сжатия : С потерями
Размер потока : 481 Мбайт (5%)
Язык : Russian
Дата кодирования : UTC 2013-05-23 06:43:24
Дата пометки : UTC 2013-05-23 06:43:39
Текст #1
Идентификатор : 21
Формат : Timed text
Режим смешивания : sbtl
Идентификатор кодека : tx3g
Продолжительность : 1 ч. 41 м.
Вид битрейта : Переменный
Битрейт : 78 бит/сек
Размер потока : 57,4 Кбайт (0%)
Язык : English
Дата кодирования : UTC 2013-05-23 06:43:24
Дата пометки : UTC 2013-05-23 06:43:39
Текст #2
Идентификатор : 22
Формат : Timed text
Режим смешивания : sbtl
Идентификатор кодека : tx3g
Продолжительность : 1 ч. 41 м.
Вид битрейта : Переменный
Битрейт : 93 бит/сек
Размер потока : 68,7 Кбайт (0%)
Язык : Russian
Дата кодирования : UTC 2013-05-23 06:43:24
Дата пометки : UTC 2013-05-23 06:43:39
Текст #3
Идентификатор : 23
Формат : Apple text
Идентификатор кодека : text
Продолжительность : 1 ч. 45 м.
Вид битрейта : Постоянный
Битрейт : 0 бит/сек
Размер потока : 286 байт (0%)
Язык : English
Дата кодирования : UTC 2013-05-23 06:43:39
Дата пометки : UTC 2013-05-23 06:43:39
Меню
00:00:00.000 : 00:00:00.000
00:10:58.491 : 00:10:58.491
00:19:31.670 : 00:19:31.670
00:36:03.578 : 00:36:03.578
00:45:07.162 : 00:45:07.162
00:49:28.840 : 00:49:28.840
00:58:39.599 : 00:58:39.599
01:13:16.100 : 01:13:16.100
01:23:22.664 : 01:23:22.664
01:38:28.193 : 01:38:28.193
01:41:04.433 : 01:41:04.433

x264 Log

x264 [info]: started at Fri May 10 02:38:09 2013
x264 [info]: frame I:1047 Avg QP:17.61 size:119306
x264 [info]: frame P:28763 Avg QP:19.03 size: 62139
x264 [info]: frame B:121343 Avg QP:19.92 size: 40708
x264 [info]: consecutive B-frames: 1.1% 1.0% 4.4% 9.8% 16.5% 58.6% 5.0% 1.4% 0.9% 0.7% 0.3% 0.2% 0.2%
x264 [info]: mb I I16..4: 3.3% 84.8% 11.8%
x264 [info]: mb P I16..4: 0.2% 29.8% 1.1% P16..4: 23.2% 29.9% 12.7% 0.0% 0.0% skip: 3.0%
x264 [info]: mb B I16..4: 0.0% 6.9% 0.1% B16..8: 35.8% 26.7% 6.1% direct:14.3% skip:10.1% L0:46.2% L1:37.2% BI:16.6%
x264 [info]: 8x8 transform intra:96.2% inter:54.6%
x264 [info]: direct mvs spatial:98.7% temporal:1.3%
x264 [info]: coded y,uvDC,uvAC intra: 98.9% 83.2% 50.2% inter: 68.1% 42.7% 7.6%
x264 [info]: i16 v,h,dc,p: 51% 15% 10% 23%
x264 [info]: i8 v,h,dc,ddl,ddr,vr,hd,vl,hu: 8% 7% 10% 10% 15% 13% 12% 12% 13%
x264 [info]: i4 v,h,dc,ddl,ddr,vr,hd,vl,hu: 10% 8% 3% 9% 16% 15% 14% 12% 13%
x264 [info]: i8c dc,h,v,p: 42% 24% 19% 14%
x264 [info]: Weighted P-Frames: Y:15.2% UV:1.3%
x264 [info]: ref P L0: 39.4% 6.5% 18.7% 10.2% 7.9% 6.2% 5.2% 3.3% 2.4% 0.1% 0.0%
x264 [info]: ref B L0: 64.9% 14.9% 7.8% 4.6% 3.4% 2.6% 1.4% 0.4%
x264 [info]: ref B L1: 91.4% 8.6%
x264 [info]: kb/s:8694.74
Скриншоты:
       

Thx & source

За исходник спасибо: - BLUEBIRD
Вне форума [Профиль] [ЛС]
Показать сообщения:    
Ответить на тему

Текущее время: Сегодня 20:24

Часовой пояс: GMT + 3



Вы не можете начинать темы
Вы не можете отвечать на сообщения
Вы не можете редактировать свои сообщения
Вы не можете удалять свои сообщения
Вы не можете голосовать в опросах
Вы не можете прикреплять файлы к сообщениям
Вы не можете скачивать файлы