Сегодня идет свободное скачивание без начисления Download

Сверкающие седла / Blazing Saddles [Мел Брукс] (1974, Комедия, Вестерн) BDRip

Ответить на тему
 
Автор
Сообщение

UndegraundMen ®

Стаж: 3 года 9 месяцев

Сообщений: 28329

Торрент-статистика

Пост 25-Май-2013 00:03

[Цитировать]

Сверкающие седла / Blazing Saddles (1974) BDRip- Русское название: Сверкающие седла
Оригинальное название: Blazing Saddles
Производство: Crossbow Productions, Warner Bros. Pictures / США
Год выпуска: 1974
Жанр: Комедия, Вестерн
Описание фильма:
Железная дорога должна пройти через городок Рок Ридж. Но как выгнать местных жителей из города, если хочешь украсть у них землю? Заслать самую отчаянную банду головорезов… и назначить нового чернокожего шерифа, который протянет не больше суток.
Режиссер: Мел Брукс
Актеры: Кливон Литтл, Джин Уайлдер, Слим Пикенс, Дэвид Хаддлстон, Лиам Данн, Алекс Кэррас, Джон Хиллерман, Джордж Ферт, Джек Старретт, Мел Брукс
Продолжительность: 01:32:51
Перевод: Одноголосый закадровый

Видеокодек: MPEG-4 AVC/H.264
Битрейт видео: ~14500
Размер кадра: 1906х800
Качество видео: BDRip
Аудиокодек: AC3
1: Russian: DD 2.0 48 kHz 224 kbps – закадровый (одноголосый, Михалёв);
2: Russian: DD 2.0 48 kHz 224 kbps – закадровый (одноголосый, Горчаков);
3: English: DD 5.1 48 kHz 640 kbps – оригинал.
Субтитры:
1. Russian;
2. English.

BDInfo

-[NoImage] x264 [info]: frame I:825 Avg QP:17.58 size:220413
-[NoImage] x264 [info]: frame P:25627 Avg QP:20.08 size:108435
-[NoImage] x264 [info]: frame B:107136 Avg QP:21.18 size: 66629
-[NoImage] x264 [info]: consecutive B-frames: 1.0% 1.8% 1.7% 26.3% 5.4% 43.4% 4.4% 8.9% 2.4% 4.7%
-[NoImage] x264 [info]: mb I I16..4: 2.6% 85.9% 11.5%
-[NoImage] x264 [info]: mb P I16..4: 0.6% 17.3% 1.2% P16..4: 26.7% 36.9% 13.6% 1.6% 0.0% skip: 2.0%
-[NoImage] x264 [info]: mb B I16..4: 0.1% 4.6% 0.2% B16..8: 41.0% 23.2% 5.1% direct:13.3% skip:12.5% L0:40.4% L1:40.0% BI:19.6%
-[NoImage] x264 [info]: 8x8 transform intra:92.0% inter:57.1%
-[NoImage] x264 [info]: direct mvs spatial:98.6% temporal:1.4%
-[NoImage] x264 [info]: coded y,uvDC,uvAC intra: 96.0% 69.6% 28.0% inter: 66.1% 28.6% 0.9%
-[NoImage] x264 [info]: i16 v,h,dc,p: 43% 24% 6% 28%
-[NoImage] x264 [info]: i8 v,h,dc,ddl,ddr,vr,hd,vl,hu: 7% 8% 7% 10% 15% 12% 15% 11% 14%
-[NoImage] x264 [info]: i4 v,h,dc,ddl,ddr,vr,hd,vl,hu: 6% 21% 3% 7% 13% 11% 15% 9% 15%
-[NoImage] x264 [info]: i8c dc,h,v,p: 31% 31% 21% 17%
-[NoImage] x264 [info]: Weighted P-Frames: Y:8.8% UV:2.1%
-[NoImage] x264 [info]: ref P L0: 44.9% 13.9% 24.0% 15.8% 1.4% 0.0%
-[NoImage] x264 [info]: ref B L0: 83.4% 13.2% 3.4%
-[NoImage] x264 [info]: ref B L1: 90.5% 9.5%
-[NoImage] x264 [info]: kb/s:14500.41
-[NoImage] encoded 133588 frames, 3.59 fps, 14500.41 kb/s
----------------------------------------------------------------------------------------------------------------------------------
Видео
Идентификатор : 1
Формат : AVC
Формат/Информация : Advanced Video Codec
Профиль формата : [url=mailto:[email protected]][email protected][/url]
Параметр CABAC формата : Да
Параметр ReFrames формата : 4 кадра
Идентификатор кодека : V_MPEG4/ISO/AVC
Продолжительность : 1 ч. 32 м.
Битрейт : 14,5 Мбит/сек
Ширина : 1906 пикселей
Высота : 800 пикселей
Соотношение сторон : 2,40:1
Режим частоты кадров : Постоянный
Частота кадров : 23,976 кадра/сек
Цветовое пространство : YUV
Субдискретизация насыщенности : 4:2:0
Битовая глубина : 8 бит
Тип развёртки : Прогрессивная
Бит/(Пиксели*Кадры) : 0.397
Размер потока : 9,21 Гбайт (91%)
Библиотека кодирования : x264 core 132 r2310 76a5c3a
Настройки программы : cabac=1 / ref=4 / deblock=1:-3:-3 / analyse=0x3:0x133 / me=umh / subme=11 / psy=1 / psy_rd=1.05:0.00 / mixed_ref=1 / me_range=32 / chroma_me=1 / trellis=2 / 8x8dct=1 / cqm=0 / deadzone=21,11 / fast_pskip=0 / chroma_qp_offset=-2 / threads=12 / lookahead_threads=2 / sliced_threads=0 / nr=0 / decimate=1 / interlaced=0 / bluray_compat=0 / constrained_intra=0 / bframes=9 / b_pyramid=2 / b_adapt=2 / b_bias=0 / direct=3 / weightb=1 / open_gop=0 / weightp=2 / keyint=240 / keyint_min=22 / scenecut=40 / intra_refresh=0 / rc_lookahead=60 / rc=2pass / mbtree=1 / bitrate=14500 / ratetol=1.0 / qcomp=0.70 / qpmin=0 / qpmax=69 / qpstep=4 / cplxblur=20.0 / qblur=0.5 / vbv_maxrate=50000 / vbv_bufsize=62500 / nal_hrd=none / ip_ratio=1.40 / aq=2:1.00
Язык : English
Default : Нет
Forced : Нет
Аудио #1
Идентификатор : 2
Формат : AC-3
Формат/Информация : Audio Coding 3
Расширение режима : CM (complete main)
Параметр Endianness формата : Big
Идентификатор кодека : A_AC3
Продолжительность : 1 ч. 32 м.
Вид битрейта : Постоянный
Битрейт : 224 Кбит/сек
Каналы : 2 канала
Расположение каналов : Front: L R
Частота : 48,0 КГц
Битовая глубина : 16 бит
Метод сжатия : С потерями
Задержка видео : 2 с. 700 мс.
Размер потока : 149 Мбайт (1%)
Заголовок : AC3 2.0 AVO-Михалёв
Язык : Russian
Default : Да
Forced : Нет
Аудио #2
Идентификатор : 3
Формат : AC-3
Формат/Информация : Audio Coding 3
Расширение режима : CM (complete main)
Параметр Endianness формата : Big
Идентификатор кодека : A_AC3
Продолжительность : 1 ч. 32 м.
Вид битрейта : Постоянный
Битрейт : 224 Кбит/сек
Каналы : 2 канала
Расположение каналов : Front: L R
Частота : 48,0 КГц
Битовая глубина : 16 бит
Метод сжатия : С потерями
Задержка видео : 2 с. 700 мс.
Размер потока : 149 Мбайт (1%)
Заголовок : AC3 2.0 AVO-Горчаков
Язык : Russian
Default : Нет
Forced : Нет
Аудио #3
Идентификатор : 4
Формат : AC-3
Формат/Информация : Audio Coding 3
Расширение режима : CM (complete main)
Параметр Endianness формата : Big
Идентификатор кодека : A_AC3
Продолжительность : 1 ч. 32 м.
Вид битрейта : Постоянный
Битрейт : 640 Кбит/сек
Каналы : 6 каналов
Расположение каналов : Front: L C R, Side: L R, LFE
Частота : 48,0 КГц
Битовая глубина : 16 бит
Метод сжатия : С потерями
Размер потока : 425 Мбайт (4%)
Заголовок : AC3 5.1 Original
Язык : English
Default : Нет
Forced : Нет
Текст #1
Идентификатор : 5
Формат : UTF-8
Идентификатор кодека : S_TEXT/UTF8
Идентификатор кодека/Информация : UTF-8 Plain Text
Язык : Russian
Default : Нет
Forced : Нет
Текст #2
Идентификатор : 6
Формат : UTF-8
Идентификатор кодека : S_TEXT/UTF8
Идентификатор кодека/Информация : UTF-8 Plain Text
Язык : English
Default : Нет
Forced : Нет
Меню
00:00:00.000 : en:00:00:00.000
00:05:00.000 : en:00:05:00.000
00:10:00.000 : en:00:10:00.000
00:15:00.000 : en:00:15:00.000
00:20:00.000 : en:00:20:00.000
00:25:00.000 : en:00:25:00.000
00:30:00.000 : en:00:30:00.000
00:35:00.000 : en:00:35:00.000
00:40:00.000 : en:00:40:00.000
00:45:00.000 : en:00:45:00.000
00:50:00.000 : en:00:50:00.000
00:55:00.000 : en:00:55:00.000
01:00:00.000 : en:01:00:00.000
01:05:00.000 : en:01:05:00.000
01:10:00.000 : en:01:10:00.000
01:15:00.000 : en:01:15:00.000
01:20:00.000 : en:01:20:00.000
01:25:00.000 : en:01:25:00.000
01:30:00.000 : en:01:30:00.000
       Время раздачи: 24/7 - круглосуточно
Вне форума [Профиль] [ЛС]
Показать сообщения:    
Ответить на тему

Текущее время: Сегодня 17:36

Часовой пояс: GMT + 3



Вы не можете начинать темы
Вы не можете отвечать на сообщения
Вы не можете редактировать свои сообщения
Вы не можете удалять свои сообщения
Вы не можете голосовать в опросах
Вы не можете прикреплять файлы к сообщениям
Вы не можете скачивать файлы