Сегодня идет свободное скачивание без начисления Download

Дружеское увещевание / Friendly Persuasion (1956) DVDRip [H.264]

Ответить на тему
 
Автор
Сообщение

UndegraundMen ®

Стаж: 3 года 9 месяцев

Сообщений: 28329

Торрент-статистика

Пост 25-Май-2013 00:21

[Цитировать]

Дружеское увещевание / Friendly Persuasion (1956) DVDRip [H.264] -«You'll love SAMANTHA, THE GOOSE!»- Русское название: Дружеское увещевание
Оригинальное название: Friendly Persuasion
Год выпуска: 1956
Жанр: Драма, Вестерн, Военный
Страна: США
Производство: Allied Artists Pictures Corporation, B-M Productions
Описание фильма:
Южная Индиана, 1862 год. Трогательная история о семействе квакеров, живущем на ферме: глава — Джесс, его жена Элайза и трое детей — старший сын Джошуа, средняя дочь Мэтти и малыш Джесс. Эта замечательная семья всю неделю трудится на своей ферме, а по воскресеньям они в полном составе посещают собрание, где предаются молитвам такие же образцовые квакеры.
Несмотря на то, что уже два года вовсю бушует война между Севером и Югом, благочестивые фермеры пытаются «закрывать на это глаза». Их учение не позволяет использовать физическую силу даже тогда, когда опасность угрожает их собственному дому…
Режиссер: Уильям Уайлер
Сценарий: Джессамин Уэст, Майкл Уилсон
Продюсер: Уильям Уайлер, Роберт Уайлер, Гарри Ф. Хоган
Актеры: Гэри Купер, Дороти МакГуайр, Энтони Перкинс, Ричард Айер, Роберт Миддлтон, Филлис Лав, Питер Марк Ричман, Уолтер Кэтлетт, Ричард Хейл, Джоэль Флюллен
Продолжительность: 02:17:43
Перевод: Двуголосый закадровый
Субтитры: Отсутствуют

Дата мировой премьеры: 1 ноября 1956
Видеокодек: MPEG-4 AVC/H.264
Битрейт видео: ~1700 Кбит/сек
Размер кадра: 720x448
Качество видео: DVDRip
Аудиокодек: AC3 2.0
Битрейт аудио: 192 kbps

Награды:

Оскар, 1957 год
Номинации (6):
Лучший фильм
Лучшая мужская роль второго плана (Энтони Перкинс)
Лучший режиссер (Уильям Уайлер)
Лучший адаптированный сценарий
Лучший звук
Лучшая песня — «Friendly Persuasion (Thee I Love)»
Золотой глобус, 1957 год
Номинации (3):
Лучшая мужская роль (драма) (Гэри Купер)
Лучший фильм, пропагандирующий мировое взаимопонимание
Лучшая женская роль второго плана (Марджори Майн)
Каннский кинофестиваль, 1957 год
Победитель (1):
Золотая пальмовая ветвь

MediaInfo:

General
Unique ID : 252346750795724529754606660128464636979 (0xBDD83764325DA3EE9DB5EDEB89AF0C33)
Complete name : H:\Downloads\Дружеское увещевание.mkv
Format : Matroska
Format version : Version 4 / Version 2
File size : 1.82 GiB
Duration : 2h 17mn
Overall bit rate : 1 894 Kbps
Encoded date : UTC 2013-05-23 12:17:05
Writing application : mkvmerge v6.0.0 ('Coming Up For Air') built on Jan 20 2013 09:52:00
Writing library : libebml v1.3.0 + libmatroska v1.4.0
Video
ID : 1
Format : AVC
Format/Info : Advanced Video Codec
Format profile : [url=mailto:[email protected]][email protected][/url]
Format settings, CABAC : Yes
Format settings, ReFrames : 5 frames
Codec ID : V_MPEG4/ISO/AVC
Duration : 2h 17mn
Bit rate : 1 700 Kbps
Width : 720 pixels
Height : 448 pixels
Display aspect ratio : 1.607
Frame rate mode : Constant
Frame rate : 23.976 fps
Color space : YUV
Chroma subsampling : 4:2:0
Bit depth : 8 bits
Scan type : Progressive
Bits/(Pixel*Frame) : 0.220
Stream size : 1.60 GiB (88%)
Title : Friendly Persuasion
Writing library : x264 core 125 r2208 d9d2288
Encoding settings : cabac=1 / ref=5 / deblock=1:-1:-1 / analyse=0x3:0x113 / me=umh / subme=8 / psy=1 / psy_rd=1.00:0.10 / mixed_ref=1 / me_range=32 / chroma_me=1 / trellis=2 / 8x8dct=1 / cqm=0 / deadzone=21,11 / fast_pskip=0 / chroma_qp_offset=-3 / threads=6 / lookahead_threads=1 / sliced_threads=0 / nr=0 / decimate=1 / interlaced=0 / bluray_compat=0 / constrained_intra=0 / bframes=3 / b_pyramid=2 / b_adapt=2 / b_bias=0 / direct=3 / weightb=1 / open_gop=0 / weightp=2 / keyint=250 / keyint_min=25 / scenecut=40 / intra_refresh=0 / rc_lookahead=50 / rc=2pass / mbtree=1 / bitrate=1700 / ratetol=1.0 / qcomp=0.60 / qpmin=10 / qpmax=51 / qpstep=4 / cplxblur=20.0 / qblur=0.5 / ip_ratio=1.40 / aq=1:1.00
Language : English
Default : Yes
Forced : No
Audio
ID : 2
Format : AC-3
Format/Info : Audio Coding 3
Mode extension : CM (complete main)
Format settings, Endianness : Big
Codec ID : A_AC3
Duration : 2h 17mn
Bit rate mode : Constant
Bit rate : 192 Kbps
Channel(s) : 2 channels
Channel positions : Front: L R
Sampling rate : 48.0 KHz
Bit depth : 16 bits
Compression mode : Lossy
Stream size : 189 MiB (10%)
Title : Профессиональный (двухголосый)
Language : Russian
Default : Yes
Forced : No
Скриншоты:                    Время раздачи: с 13:00 до 01:00 по Москве (выходные круглосуточно), до 10 скачавших
Вне форума [Профиль] [ЛС]
Показать сообщения:    
Ответить на тему

Текущее время: Сегодня 17:23

Часовой пояс: GMT + 3



Вы не можете начинать темы
Вы не можете отвечать на сообщения
Вы не можете редактировать свои сообщения
Вы не можете удалять свои сообщения
Вы не можете голосовать в опросах
Вы не можете прикреплять файлы к сообщениям
Вы не можете скачивать файлы